Loading...
Error

Скачать Банда аутсайдеров / Bande a part (Жан-Люк Годар) [1964, драма, комедия, криминал, BDRip-AVC] [AVO (Ю.Сербин)]+[Sub]x2 торрент без регистрации

 
Статистика раздачи
Размер:  2,18 GB   |    Скачан:  2 раза
Сидов:  1  [  0 KB/s  ]  
 
Автор Сообщение

Marsianka

[] 

Информация о фильме
Название: Банда аутсайдеров
Оригинальное название: Bande a part
Год выхода: 1964
Жанр: драма, комедия, криминал
Режиссер: Жан-Люк Годар
В ролях: Анна Карина, Клод Брассёр, Сами Фрей, Дэниэль Джирард, Луиса Кольпейн, Чантал Дарже, Жорж Стаке, Эрнест Мензе, Жан-Клод Ремолё, Мишель Дилэй, Жан-Люк Годар, месье Жожо, Клод Маковски, Мишель Зегерс

О фильме:
Одиль знакомится с двумя молодыми людьми, Артюром и Францом, на курсах английского языка. Они убеждают её принять участие в ограблении.


Страна: Франция
Студия: Anouchka Films, Columbia Films S.A., Orsay Films
Продолжительность: 01:36:05
Перевод: Авторский (Ю.Сербин)

Файл
Кодек: x264
Качество: BDRip-AVC (Band of Outsiders AKA Bande à part 1964 Criterion Collection 1080p Bluray Remux AVC FLAC 1.0-UQ)
Видео: MPEG-4 AVC, 2891 Кбит/с, 768x576, 23.976 кадр/с
Аудио #1: AC3, 2 ch, 160 Кбит/с | Русский
Аудио #2: AC3, 1 ch, 192 Кбит/с | Французский
Субтитры: Русские, английские
Общее
Уникальный идентификатор : 248586521388264876914108436416271129727 (0xBB0405C49C0341A581068C57EF169C7F)
Полное имя : E:ЗагрузкаBand.of.Outsiders.1964.BDRip-AVC.mkv
Формат : Matroska
Версия формата : Version 4 / Version 2
Размер файла : 2,18 Гбайт
Продолжительность : 1 ч. 36 м.
Общий поток : 3245 Кбит/сек
Название фильма : Band of Outsiders by Koenig
Дата кодирования : UTC 2016-10-18 09:30:11
Программа кодирования : mkvmerge v9.2.0 ('Photograph') 32bit
Библиотека кодирования : libebml v1.3.3 + libmatroska v1.4.4
Обложка : Yes
Attachments : cover.jpg

Видео
Идентификатор : 1
Формат : AVC
Формат/Информация : Advanced Video Codec
Профиль формата : High@L4.1
Параметр CABAC формата : Да
Параметр ReFrames формата : 11 кадров
Идентификатор кодека : V_MPEG4/ISO/AVC
Продолжительность : 1 ч. 36 м.
Битрейт : 2891 Кбит/сек
Ширина : 768 пикселей
Высота : 576 пикселей
Соотношение сторон : 4:3
Режим частоты кадров : Постоянный
Частота кадров : 23,976 (24000/1001) кадра/сек
Цветовое пространство : YUV
Субдискретизация насыщенности : 4:2:0
Битовая глубина : 8 бит
Тип развёртки : Прогрессивная
Бит/(Пиксели*Кадры) : 0.273
Размер потока : 1,94 Гбайт (89%)
Библиотека кодирования : x264 core 148 r2692 64f4e24
Настройки программы : cabac=1 / ref=11 / deblock=1:-3:-3 / analyse=0x3:0x133 / me=umh / subme=10 / psy=1 / psy_rd=1.00:0.10 / mixed_ref=1 / me_range=32 / chroma_me=1 / trellis=2 / 8x8dct=1 / cqm=0 / deadzone=21,11 / fast_pskip=1 / chroma_qp_offset=-3 / threads=3 / lookahead_threads=1 / sliced_threads=0 / nr=0 / decimate=1 / interlaced=0 / bluray_compat=0 / constrained_intra=0 / bframes=12 / b_pyramid=2 / b_adapt=2 / b_bias=0 / direct=3 / weightb=1 / open_gop=0 / weightp=2 / keyint=240 / keyint_min=23 / scenecut=40 / intra_refresh=0 / rc_lookahead=40 / rc=2pass / mbtree=1 / bitrate=2891 / ratetol=1.0 / qcomp=0.60 / qpmin=0 / qpmax=51 / qpstep=4 / cplxblur=20.0 / qblur=0.5 / vbv_maxrate=50000 / vbv_bufsize=62500 / nal_hrd=none / filler=0 / ip_ratio=1.40 / aq=1:1.00
Default : Да
Forced : Нет

Аудио #1
Идентификатор : 2
Формат : AC-3
Формат/Информация : Audio Coding 3
Расширение режима : CM (complete main)
Параметр Endianness формата : Big
Идентификатор кодека : A_AC3
Продолжительность : 1 ч. 36 м.
Вид битрейта : Постоянный
Битрейт : 160 Кбит/сек
Каналы : 2 канала
Расположение каналов : Front: L R
Частота : 48,0 КГц
Частота кадров : 31,250 кадров/сек (1536 spf)
Метод сжатия : С потерями
Размер потока : 110 Мбайт (5%)
Заголовок : AVO - Ю.Сербин
Язык : Russian
Default : Да
Forced : Нет

Аудио #2
Идентификатор : 3
Формат : AC-3
Формат/Информация : Audio Coding 3
Расширение режима : CM (complete main)
Параметр Endianness формата : Big
Идентификатор кодека : A_AC3
Продолжительность : 1 ч. 36 м.
Вид битрейта : Постоянный
Битрейт : 192 Кбит/сек
Каналы : 1 канал
Расположение каналов : Front: C
Частота : 48,0 КГц
Частота кадров : 31,250 кадров/сек (1536 spf)
Метод сжатия : С потерями
Размер потока : 132 Мбайт (6%)
Заголовок : Original
Язык : French
Default : Нет
Forced : Нет

Текст #1
Идентификатор : 4
Формат : UTF-8
Идентификатор кодека : S_TEXT/UTF8
Идентификатор кодека/Информация : UTF-8 Plain Text
Продолжительность : 1 ч. 34 м.
Битрейт : 78 бит/сек
Count of elements : 858
Размер потока : 54,3 Кбайт (0%)
Язык : Russian
Default : Да
Forced : Нет

Текст #2
Идентификатор : 5
Формат : UTF-8
Идентификатор кодека : S_TEXT/UTF8
Идентификатор кодека/Информация : UTF-8 Plain Text
Продолжительность : 1 ч. 34 м.
Битрейт : 42 бит/сек
Count of elements : 941
Размер потока : 29,6 Кбайт (0%)
Язык : English
Default : Нет
Forced : Нет

Меню
00:00:00.000 : en:"My Story Begins Here"
00:07:05.934 : en:For Latecomers
00:08:50.468 : en:Loui's School
00:11:20.269 : en:Romeo and Juliet
00:17:53.436 : en:French Kiss
00:22:59.436 : en:The Accomplice
00:27:48.770 : en:The Stash
00:30:59.437 : en:The Interrogation
00:33:45.604 : en:Truths and Tigers
00:38:50.438 : en:Lies and Libations
00:45:04.438 : en:"A Minute of Silence"
00:47:35.972 : en:The Madison
00:51:49.306 : en:Love and Bullets
00:55:31.540 : en:Odile's Ode
00:57:53.608 : en:The Morning After
01:00:29.741 : en:A Change of Plans
01:06:47.908 : en:Killing Time
01:08:55.941 : en:Pressures and Preparations
01:11:56.074 : en:The Approach
01:16:28.574 : en:Up and Out
01:21:16.241 : en:The Heist
01:27:49.741 : en:"A Dark Foreboding"
01:32:11.575 : en:Going South



Скачать Банда.аутсайдеров.Bande.a.part.(Жан-Люк.Годар).[1964.драма.комедия.криминал.BDRip-AVC].[AVO.(Ю.Сербин)]+[Sub]x2.torrent без регистрации
Золото ЗОЛОТАЯ РАЗДАЧА! СКАЧАННОЕ НЕ ЗАСЧИТЫВАЕТСЯ! Золото
Дата: Зарегистрирован   [ Тип: внутренний ] Как тут cкачать?
MAGNET ссылка
MAGNET ссылка


Скачать .torrent

12 KB

Статус: проверено DHT
Скачан: торрент - 2 раз, раздача полностью - 1 раз
Размер: 2,18 GB
Оценка:  - (Голосов: 0)
Поблагодарили: 1
Поделиться ссылкой на эту раздачу с друзьями:
В контактеFacebookОдноклассникиTwitterLivejournalМой МирLiveinternet
 

 
Показать сообщения:    


Вы не можете начинать темы
Вы не можете отвечать на сообщения
Вы не можете редактировать свои сообщения
Вы не можете удалять свои сообщения
Вы не можете голосовать в опросах
Вы не можете прикреплять файлы к сообщениям
Вы можете скачивать файлы