Loading...
Error

Скачать Эгей, Кроха! / Hahó, Öcsi! (Дьёрдь Палашти, Миклош Темеши) [1971, детский, семейный, сказка, DVDRip] [Dub]+[VO (Анатолий Гусев)] торрент без регистрации

 
Статистика раздачи
Размер:  1,43 GB   |    Скачан:  15 раз
Сидов:  1  [  0 KB/s  ]  
 
Автор Сообщение

Marsianka

[] 

Информация о фильме
Название: Привет, братишка / Эгей, Кроха!
Оригинальное название: Hahó, Öcsi!
Год выхода: 1971
Жанр: детский, семейный, сказка
Режиссеры: Дьёрдь Палашти, Миклош Темеши
В ролях: Кристиан Ковач, Маньи Кишш, Габор Конц, Эстер Сакач, Илдико Пирош, Иштван Ковач, Дежё Горош, Ласло Чакани, Шандор Печи, Лайош Башти, Ласло Ференц, Йожеф Сендрё, Иштван Деги, Йожеф Мадараш

О фильме:
Все любят Кроху - но ни у кого нет для него времени. И мама с папой, и бабушка, и старшие дети постоянно спешат, им недосуг заниматься малышом. Однажды утром папа за провинность закрывает Кроху в ванной. Тут в ванне откуда ни возьмись появляется кораблик с двумя гномами, Кокосей и Бобосей. Мальчик жалуется им на вечную спешку близких, и гномы берут его с собой на поиски времени. В этом Крохе должны помочь сообразительность, смекалка и храбрость, ведь время охраняет семиглавый дракон...

Примечание: Дубляж с советской прокатной копии подогнан под DVDRip. На места, отсутствующие в дублированном варианте, сделаны вставки из одноголосой озвучки.



Производство: Венгрия / MAFILM II. Játékfilmstúdió
Продолжительность: 01:20:07
Перевод: профессиональный дублированный [Мосфильм], любительский одноголосый закадровый [Анатолий Гусев]

Файл
Качество: DVDRip
Формат: AVI
Видео: XviD, 720x400 (16:9), 25.000 fps, 1957 kbps, 0.272 bit/pixel
Аудио #1: русский, AC3 2.0, 48 kHz, 192 kbps | Dub
Аудио #2: русский, AC3 2.0, 48 kHz, 192 kbps | VO
Аудио #3: венгерский, AC3 2.0, 48 kHz, 192 kbps
Формат : AVI
Формат/Информация : Audio Video Interleave
Размер файла : 1,43 Гбайт
Продолжительность : 1 ч. 20 м.
Общий поток : 2552 Кбит/сек
Программа кодирования : VirtualDubModRus 1.5.10.2 (build 2542/release)
Библиотека кодирования : VirtualDubMod build 2542/release

Видео
Идентификатор : 0
Формат : MPEG-4 Visual
Профиль формата : Advanced Simple@L5
Параметр BVOP формата : 2
Параметр QPel формата : Нет
Параметр GMC формата : Без точки перехода
Параметр матрицы формата : Default (MPEG)
Идентификатор кодека : XVID
Идентификатор кодека/Подсказка : XviD
Продолжительность : 1 ч. 20 м.
Битрейт : 1957 Кбит/сек
Ширина : 720 пикселей
Высота : 400 пикселей
Соотношение сторон : 16:9
Частота кадров : 25,000 кадров/сек
Цветовое пространство : YUV
Субдискретизация насыщенности : 4:2:0
Битовая глубина : 8 бит
Тип развёртки : Прогрессивная
Метод сжатия : С потерями
Бит/(Пиксели*Кадры) : 0.272
Размер потока : 1,10 Гбайт (77%)
Библиотека кодирования : XviD 1.2.1 (UTC 2008-12-04)

Аудио #1
Идентификатор : 1
Формат : AC-3
Формат/Информация : Audio Coding 3
Расширение режима : CM (complete main)
Параметр Endianness формата : Big
Идентификатор кодека : 2000
Продолжительность : 1 ч. 20 м.
Вид битрейта : Постоянный
Битрейт : 192 Кбит/сек
Каналы : 2 канала
Расположение каналов : Front: L R
Частота : 48,0 КГц
Метод сжатия : С потерями
Размер потока : 110 Мбайт (8%)
Выравнивание : Разделение по промежуткам
Продолжительность промежутка : 40 мс. (1,00 видеокадр)
Время предзагрузки промежутка : 500 мс.

Аудио #2
Идентификатор : 2
Формат : AC-3
Формат/Информация : Audio Coding 3
Расширение режима : CM (complete main)
Параметр Endianness формата : Big
Идентификатор кодека : 2000
Продолжительность : 1 ч. 20 м.
Вид битрейта : Постоянный
Битрейт : 192 Кбит/сек
Каналы : 2 канала
Расположение каналов : Front: L R
Частота : 48,0 КГц
Метод сжатия : С потерями
Размер потока : 110 Мбайт (8%)
Выравнивание : Разделение по промежуткам
Продолжительность промежутка : 40 мс. (1,00 видеокадр)
Время предзагрузки промежутка : 500 мс.

Аудио #3
Идентификатор : 3
Формат : AC-3
Формат/Информация : Audio Coding 3
Расширение режима : CM (complete main)
Параметр Endianness формата : Big
Идентификатор кодека : 2000
Продолжительность : 1 ч. 20 м.
Вид битрейта : Постоянный
Битрейт : 192 Кбит/сек
Каналы : 2 канала
Расположение каналов : Front: L R
Частота : 48,0 КГц
Метод сжатия : С потерями
Размер потока : 110 Мбайт (8%)
Выравнивание : Разделение по промежуткам
Продолжительность промежутка : 40 мс. (1,00 видеокадр)
Время предзагрузки промежутка : 500 мс.



Скачать Эгей.Кроха!.Hahó.Öcsi!.(Дьёрдь.Палашти.Миклош.Темеши).[1971.детский.семейный.сказка.DVDRip].[Dub]+[VO.(Анатолий.Гусев)].torrent без регистрации
Золото ЗОЛОТАЯ РАЗДАЧА! СКАЧАННОЕ НЕ ЗАСЧИТЫВАЕТСЯ! Золото
Дата: Зарегистрирован   [ Тип: внутренний ] Как тут cкачать?
MAGNET ссылка
MAGNET ссылка


Скачать .torrent

15 KB

Статус: проверено DHT
Скачан: торрент - 15 раз, раздача полностью - 6 раз
Размер: 1,43 GB
Оценка:  - (Голосов: 0)
Поблагодарили: 2
Поделиться ссылкой на эту раздачу с друзьями:
В контактеFacebookОдноклассникиTwitterLivejournalМой МирLiveinternet
 

 
Показать сообщения:    


Вы не можете начинать темы
Вы не можете отвечать на сообщения
Вы не можете редактировать свои сообщения
Вы не можете удалять свои сообщения
Вы не можете голосовать в опросах
Вы не можете прикреплять файлы к сообщениям
Вы можете скачивать файлы