Loading...
Error

Скачать Перевал Брейкхарт / Breakheart Pass (Том Грайз) [1975, вестерн, детектив, HDRip] [MVO] торрент без регистрации

 
Статистика раздачи
Размер:  743 MB   |    Скачан:  20 раз
Сидов:  1  [  0 KB/s  ]  
 
Автор Сообщение

Marsianka

[] 

Название: Перевал Брейкхарт
Оригинальное название: Breakheart Pass
Год выпуска: 1975
Жанр: вестерн, детектив
Режиссёр: Том Грайз / Tom Gries
В ролях: Чарльз Бронсон, Бен Джонсон, Джилл Айрленд, Чарльз Дёрнинг, Эд Лотер, Билл МакКинни, Дэвид Хаддлстон, Рой Дженсон, Роберт Тессьер, Даг Эткинс, Рэйфорд Барнс, Джо Кэпп, Сэлли Кемп, Сэлли Кёркленд, Эдди Литтл Скай, Кит МакКоннелл, Джон Митчум, Арчи Мур, Рид Морган, Скотт Ньюман, Роберт Ротуэлл, Кэйси Тиббс, Ричард Кренна

Описание: В 1876 году на поезде, который направлялся в форт Хамболдт и вёз, якобы, продовольствие и медикаменты для людей, умирающих, по ложному слуху, от холеры, появился подпольный полицейский Джон Дикин. Он должен был раскрыть махинации торговцев оружием. Но в это же самое время в поезде, где происходит почти всё действие ленты, случились необъяснимые убийства...



Страна: США
Студия: Elliott Kastner Productions, Jerry Gershwin Productions
Продолжительность: 01:34:17
Перевод: Профессиональный (многоголосый, закадровый) - Петербург 5 канал

Файл
Формат: avi
Качество: HDRip (BDRip.720p)
Видео: XviD, 656x352, 23.976fps, 965kbps
Аудио: MPEG Layer 3, 2ch, 48000Hz, 128kbps


General
Format : AVI
Format/Info : Audio Video Interleave
File size : 743 MiB
Duration : 1h 34mn
Overall bit rate : 1 102 Kbps
Writing application : VirtualDubMod 1.5.10.3 | www.virtualdub-fr.org || (build 2550/release)
Writing library : VirtualDub build 35491/release

Video
ID : 0
Format : MPEG-4 Visual
Format profile : Advanced Simple@L5
Format settings, BVOP : 2
Format settings, QPel : No
Format settings, GMC : No warppoints
Format settings, Matrix : Custom
Codec ID : XVID
Codec ID/Hint : XviD
Duration : 1h 34mn
Bit rate : 965 Kbps
Width : 656 pixels
Height : 352 pixels
Display aspect ratio : 1.85:1
Frame rate : 23.976 fps
Color space : YUV
Chroma subsampling : 4:2:0
Bit depth : 8 bits
Scan type : Progressive
Compression mode : Lossy
Bits/(Pixel*Frame) : 0.174
Stream size : 651 MiB (88%)
Writing library : XviD 73

Audio
ID : 1
Format : MPEG Audio
Format version : Version 1
Format profile : Layer 3
Codec ID : 55
Codec ID/Hint : MP3
Duration : 1h 34mn
Bit rate mode : Constant
Bit rate : 128 Kbps
Channel(s) : 2 channels
Sampling rate : 48.0 KHz
Compression mode : Lossy
Stream size : 86.3 MiB (12%)
Alignment : Aligned on interleaves
Interleave, duration : 42 ms (1.00 video frame)
Interleave, preload duration : 504 ms
Writing library : LAME3.99r
Encoding settings : -m s -V 4 -q 2 -lowpass 17 -b 128
Релиз от:



Скачать Перевал.Брейкхарт.Breakheart.Pass.(Том.Грайз).[1975.вестерн.детектив.HDRip].[MVO].torrent без регистрации
Золото ЗОЛОТАЯ РАЗДАЧА! СКАЧАННОЕ НЕ ЗАСЧИТЫВАЕТСЯ! Золото
Дата: Зарегистрирован   [ Тип: внутренний ] Как тут cкачать?
MAGNET ссылка
MAGNET ссылка


Скачать .torrent

15 KB

Статус: проверено DHT
Скачан: торрент - 20 раз, раздача полностью - 2 раз
Размер: 743 MB
Оценка:  - (Голосов: 0)
Поблагодарили: 0
Поделиться ссылкой на эту раздачу с друзьями:
В контактеFacebookОдноклассникиTwitterLivejournalМой МирLiveinternet
 

 
Показать сообщения:    


Вы не можете начинать темы
Вы не можете отвечать на сообщения
Вы не можете редактировать свои сообщения
Вы не можете удалять свои сообщения
Вы не можете голосовать в опросах
Вы не можете прикреплять файлы к сообщениям
Вы можете скачивать файлы