Loading...
Error

Скачать Крэйзи / Havoc (Барбара Коппл) [2005, драма, криминал, WEB-DLRip-AVC] [Dub] торрент без регистрации

 
Статистика раздачи
Размер:  1,46 GB   |    Скачан:  3 раза
Сидов:  1  [  0 KB/s  ]  
 
Автор Сообщение

Marsianka

[] 

Производство: США, Германия, Media 8 Entertainment, Stuhall Productions, S.R.O. Entertainment AG
Жанр: драма, криминал

Режиссер: Барбара Коппл
Актеры: Энн Хэтэуэй, Бижу Филлипс, Фредди Родригес, Шири Эпплби, Майкл Бин, Джозеф Гордон-Левитт, Мэтью О’Лири, Лора Сан Джакомо, Майк Фогель, Рэймонд Крус

Описание:
Эллисон и Эмили из богатого района, тусуясь в местной «банде», однажды решают усилить ощущения в Восточном Лос-Анджелесе — районе реальных городских гангстеров!.. Они получили там все, что хотели… кроме второго шанса.



Релиз от: K.E.N (NNM-CLUB)
Продолжительность: 01:25:30
Качество видео: WEB-DLRip-AVC
Перевод: Дублированный
Субтитры: Отсутствуют

Видео: AVC, 1024x576 (16:9), 23.976 fps, 1 993 Kbps (0.141 bit/pixel)
Аудио: AC-3, 48.0 KHz, 6 ch, 448 Kbps, CBR (Russian)
Формат : Matroska
Версия формата : Version 2
Размер файла : 1,46 Гбайт
Продолжительность : 1 ч. 25 м.
Общий поток : 2441 Кбит/сек
Название фильма : Крэйзи / Havoc
Дата кодирования : UTC 2016-10-19 21:10:24
Программа кодирования : mkvmerge v5.3.0 ('I could have danced') built on Feb 9 2012 10:38:07
Библиотека кодирования : libebml v1.2.3 + libmatroska v1.3.0
Attachment : Yes

Видео
Идентификатор : 1
Формат : AVC
Формат/Информация : Advanced Video Codec
Профиль формата : High@L4.1
Параметр CABAC формата : Да
Параметр ReFrames формата : 11 кадров
Идентификатор кодека : V_MPEG4/ISO/AVC
Продолжительность : 1 ч. 25 м.
Битрейт : 1993 Кбит/сек
Ширина : 1024 пикселя
Высота : 576 пикселей
Соотношение сторон : 16:9
Режим частоты кадров : Постоянный
Частота кадров : 23,976 кадра/сек
Цветовое пространство : YUV
Субдискретизация насыщенности : 4:2:0
Битовая глубина : 8 бит
Тип развёртки : Прогрессивная
Бит/(Пиксели*Кадры) : 0.141
Размер потока : 1,16 Гбайт (80%)
Библиотека кодирования : x264 core 146 r2538 121396c
Настройки программы : cabac=1 / ref=11 / deblock=1:-3:-3 / analyse=0x3:0x133 / me=umh / subme=10 / psy=1 / psy_rd=1.00:0.15 / mixed_ref=1 / me_range=32 / chroma_me=1 / trellis=2 / 8x8dct=1 / cqm=0 / deadzone=21,11 / fast_pskip=0 / chroma_qp_offset=-3 / threads=12 / lookahead_threads=2 / sliced_threads=0 / nr=0 / decimate=1 / interlaced=0 / bluray_compat=0 / constrained_intra=0 / bframes=8 / b_pyramid=2 / b_adapt=2 / b_bias=0 / direct=3 / weightb=1 / open_gop=0 / weightp=2 / keyint=240 / keyint_min=23 / scenecut=40 / intra_refresh=0 / rc_lookahead=60 / rc=2pass / mbtree=1 / bitrate=1993 / ratetol=1.0 / qcomp=0.60 / qpmin=0 / qpmax=69 / qpstep=4 / cplxblur=20.0 / qblur=0.5 / ip_ratio=1.40 / aq=3:1.00
Default : Да
Forced : Нет
Основные цвета : Generic film
Характеристики трансфера : BT.709
Коэффициенты матрицы : BT.709

Аудио
Идентификатор : 2
Формат : AC-3
Формат/Информация : Audio Coding 3
Расширение режима : CM (complete main)
Параметр Endianness формата : Big
Идентификатор кодека : A_AC3
Продолжительность : 1 ч. 25 м.
Вид битрейта : Постоянный
Битрейт : 448 Кбит/сек
Каналы : 6 каналов
Расположение каналов : Front: L C R, Side: L R, LFE
Частота : 48,0 КГц
Битовая глубина : 16 бит
Метод сжатия : С потерями
Размер потока : 274 Мбайт (18%)
Язык : Russian
Default : Да
Forced : Нет

Меню
00:00:00.000 : en:Main Titles
00:04:07.000 : en:Spoiled Bored
00:10:48.000 : en:Lunch With Dad
00:14:22.000 : en:Hood Rollin'
00:19:46.000 : en:Girls Night Out
00:26:13.000 : en:East Side House Party
00:31:23.000 : en:Loneliest Girl I Know
00:35:35.000 : en:Just Looking
00:38:08.000 : en:People Live Here
00:42:05.000 : en:Jail Bird
00:45:38.000 : en:Totally Real
00:51:16.000 : en:Motel Romp
00:55:24.000 : en:The Sixteenth
00:58:36.000 : en:Dice Game
01:00:30.000 : en:Just Sex
01:04:39.000 : en:You Ain't Real
01:08:50.000 : en:Police Matter
01:10:32.000 : en:False Justice
01:18:23.000 : en:Reality Check
01:21:29.000 : en:End Credits



Скачать Крэйзи.Havoc.(Барбара.Коппл).[2005.драма.криминал.WEB-DLRip-AVC].[Dub].torrent без регистрации
Золото ЗОЛОТАЯ РАЗДАЧА! СКАЧАННОЕ НЕ ЗАСЧИТЫВАЕТСЯ! Золото
Дата: Зарегистрирован   [ Тип: внутренний ] Как тут cкачать?
MAGNET ссылка
MAGNET ссылка


Скачать .torrent

15 KB

Статус: проверено DHT
Скачан: торрент - 3 раз, раздача полностью - 0 раз
Размер: 1,46 GB
Оценка:  - (Голосов: 0)
Поблагодарили: 0
Поделиться ссылкой на эту раздачу с друзьями:
В контактеFacebookОдноклассникиTwitterLivejournalМой МирLiveinternet
 

 
Показать сообщения:    


Вы не можете начинать темы
Вы не можете отвечать на сообщения
Вы не можете редактировать свои сообщения
Вы не можете удалять свои сообщения
Вы не можете голосовать в опросах
Вы не можете прикреплять файлы к сообщениям
Вы можете скачивать файлы