Loading...
Error

Скачать Полицейские / Cop Land (Джеймс Мэнголд) [1997, триллер, драма, детектив, BDRip-AVC] [MVO]+[AVO]x2 торрент без регистрации

 
Статистика раздачи
Размер:  3,49 GB   |    Скачан:  3 раза

Полного источника не было: 22 минуты

 
Автор Сообщение

Marsianka

[] 

Производство: США
Жанр: триллер, драма, детектив
Продолжительность: 01:56:17
Перевод: Профессиональный многоголосый,авторский одноголосый
Субтитры: отсутствуют

Режиссер: Джеймс Мэнголд

Актеры: Сильвестр Сталлоне, Харви Кейтель, Рэй Лиотта, Роберт Де Ниро, Питер Берг, Джанин Гарофало, Роберт Патрик, Майкл Рапапорт, Аннабелла Шиорра, Ноа Эммерик

Описание:
Нити расследования дел мафиозных копов приводят Мо Тилдена — следователя из отдела внутренней безопасности — в городок и к шерифу Фредди Хефлину. Хефлин начинает помогать Тилдену и вскоре обнаруживает, что его герои могут оказаться не столь непогрешимыми.



Качество: BDRip-AVC
Видео: AVC, 1024x554 (16:9), 23.976 fps, 2 499 Kbps (0.184 bit/pixel)
Аудио #1: AC-3, 48.0 KHz, 6 ch, 448 Kbps, CBR (Russian) - MVO (со вставками А. Гаврилова)
Аудио #2: AC-3, 48.0 KHz, 6 ch, 448 Kbps, CBR (Russian) - AVO (Андрей Гаврилов)
Аудио #3: AC-3, 48.0 KHz, 6 ch, 448 Kbps, CBR (Russian) - AVO (Юрий Живов со вставками А. Гаврилова)
Аудио #4: AC-3, 48.0 KHz, 6 ch, 448 Kbps, CBR (Russian) - М.Чадов по переводу Е.Гаевского

Формат : Matroska
Версия формата : Version 2
Размер файла : 3,49 Гбайт
Продолжительность : 1 ч. 56 м.
Общий поток : 4293 Кбит/сек
Дата кодирования : UTC 2016-10-19 18:27:01
Программа кодирования : mkvmerge v5.3.0 ('I could have danced') built on Feb 9 2012 10:38:07
Библиотека кодирования : libebml v1.2.3 + libmatroska v1.3.0
Attachment : Yes

Видео
Идентификатор : 1
Формат : AVC
Формат/Информация : Advanced Video Codec
Профиль формата : High@L4.1
Параметр CABAC формата : Да
Параметр ReFrames формата : 10 кадров
Идентификатор кодека : V_MPEG4/ISO/AVC
Продолжительность : 1 ч. 56 м.
Битрейт : 2499 Кбит/сек
Ширина : 1024 пикселя
Высота : 554 пикселя
Соотношение сторон : 1,85:1
Режим частоты кадров : Постоянный
Частота кадров : 23,976 кадра/сек
Цветовое пространство : YUV
Субдискретизация насыщенности : 4:2:0
Битовая глубина : 8 бит
Тип развёртки : Прогрессивная
Бит/(Пиксели*Кадры) : 0.184
Размер потока : 1,96 Гбайт (56%)
Библиотека кодирования : x264 core 142 r2431 ac76440
Настройки программы : cabac=1 / ref=10 / deblock=1:-3:-3 / analyse=0x3:0x133 / me=umh / subme=11 / psy=1 / psy_rd=1.00:0.00 / mixed_ref=1 / me_range=32 / chroma_me=1 / trellis=2 / 8x8dct=1 / cqm=0 / deadzone=21,11 / fast_pskip=1 / chroma_qp_offset=-2 / threads=12 / lookahead_threads=2 / sliced_threads=0 / nr=0 / decimate=0 / interlaced=0 / bluray_compat=0 / constrained_intra=0 / bframes=8 / b_pyramid=2 / b_adapt=2 / b_bias=0 / direct=3 / weightb=1 / open_gop=0 / weightp=2 / keyint=240 / keyint_min=23 / scenecut=40 / intra_refresh=0 / rc=2pass / mbtree=0 / bitrate=2499 / ratetol=1.0 / qcomp=0.60 / qpmin=0 / qpmax=69 / qpstep=4 / cplxblur=20.0 / qblur=0.5 / ip_ratio=1.40 / pb_ratio=1.30 / aq=1:1.00
Язык : English
Default : Да
Forced : Нет

Аудио #1
Идентификатор : 2
Формат : AC-3
Формат/Информация : Audio Coding 3
Расширение режима : CM (complete main)
Параметр Endianness формата : Big
Идентификатор кодека : A_AC3
Продолжительность : 1 ч. 56 м.
Вид битрейта : Постоянный
Битрейт : 448 Кбит/сек
Каналы : 6 каналов
Расположение каналов : Front: L C R, Side: L R, LFE
Частота : 48,0 КГц
Битовая глубина : 16 бит
Метод сжатия : С потерями
Размер потока : 373 Мбайт (10%)
Заголовок : MVO (со вставками А. Гаврилова)
Язык : Russian
Default : Да
Forced : Нет

Аудио #2
Идентификатор : 3
Формат : AC-3
Формат/Информация : Audio Coding 3
Расширение режима : CM (complete main)
Параметр Endianness формата : Big
Идентификатор кодека : A_AC3
Продолжительность : 1 ч. 56 м.
Вид битрейта : Постоянный
Битрейт : 448 Кбит/сек
Каналы : 6 каналов
Расположение каналов : Front: L C R, Side: L R, LFE
Частота : 48,0 КГц
Битовая глубина : 16 бит
Метод сжатия : С потерями
Размер потока : 373 Мбайт (10%)
Заголовок : AVO (Андрей Гаврилов)
Язык : Russian
Default : Нет
Forced : Нет

Аудио #3
Идентификатор : 4
Формат : AC-3
Формат/Информация : Audio Coding 3
Расширение режима : CM (complete main)
Параметр Endianness формата : Big
Идентификатор кодека : A_AC3
Продолжительность : 1 ч. 56 м.
Вид битрейта : Постоянный
Битрейт : 448 Кбит/сек
Каналы : 6 каналов
Расположение каналов : Front: L C R, Side: L R, LFE
Частота : 48,0 КГц
Битовая глубина : 16 бит
Метод сжатия : С потерями
Размер потока : 373 Мбайт (10%)
Заголовок : AVO (Юрий Живов со вставками А. Гаврилова)
Язык : Russian
Default : Нет
Forced : Нет

Аудио #4
Идентификатор : 5
Формат : AC-3
Формат/Информация : Audio Coding 3
Расширение режима : CM (complete main)
Параметр Endianness формата : Big
Идентификатор кодека : A_AC3
Продолжительность : 1 ч. 56 м.
Вид битрейта : Постоянный
Битрейт : 448 Кбит/сек
Каналы : 6 каналов
Расположение каналов : Front: L C R, Side: L R, LFE
Частота : 48,0 КГц
Битовая глубина : 16 бит
Метод сжатия : С потерями
Размер потока : 373 Мбайт (10%)
Заголовок : М.Чадов по переводу Е.Гаевского
Язык : Russian
Default : Нет
Forced : Нет

Меню
00:00:00.000 : en:00:00:00.000
00:09:20.393 : en:00:09:20.393
00:19:06.562 : en:00:19:06.562
00:30:37.044 : en:00:30:37.044
00:37:46.139 : en:00:37:46.139
00:47:26.844 : en:00:47:26.844
00:58:43.520 : en:00:58:43.520
01:04:29.491 : en:01:04:29.491
01:14:45.064 : en:01:14:45.064
01:19:28.472 : en:01:19:28.472
01:31:41.496 : en:01:31:41.496
01:46:01.438 : en:01:46:01.438



Скачать Полицейские.Cop.Land.(Джеймс.Мэнголд).[1997.триллер.драма.детектив.BDRip-AVC].[MVO]+[AVO]x2.torrent без регистрации
Золото ЗОЛОТАЯ РАЗДАЧА! СКАЧАННОЕ НЕ ЗАСЧИТЫВАЕТСЯ! Золото
Дата: Зарегистрирован   [ Тип: внутренний ] Как тут cкачать?
MAGNET ссылка
MAGNET ссылка


Скачать .torrent

18 KB

Статус: проверено DHT
Скачан: торрент - 3 раз, раздача полностью - 2 раз
Размер: 3,49 GB
Оценка:  - (Голосов: 0)
Поблагодарили: 1
Поделиться ссылкой на эту раздачу с друзьями:
В контактеFacebookОдноклассникиTwitterLivejournalМой МирLiveinternet
 

 
Показать сообщения:    


Вы не можете начинать темы
Вы не можете отвечать на сообщения
Вы не можете редактировать свои сообщения
Вы не можете удалять свои сообщения
Вы не можете голосовать в опросах
Вы не можете прикреплять файлы к сообщениям
Вы можете скачивать файлы