Loading...
Error

Скачать Крутой и цыпочки / Man of the House (Стивен Херек) [2005, комедия, боевик, WEB-DLRip-AVC] [DVO]x2+[Sub]x2 торрент без регистрации

 
Статистика раздачи
Размер:  2,18 GB   |    Скачан:  10 раз
Сидов:  1  [  0 KB/s  ]  
 
Автор Сообщение

Marsianka

[] 

Производство: США, Revolution Studios, Bel Air Entertainment
Жанр: комедия, боевик

Режиссер: Стивен Херек
Актеры: Томми Ли Джонс, Седрик «Развлекатель», Кристина Милиан, Паула Гарсес, Моника Кеена, Ванесса Ферлито, Келли Гарнер, Энн Арчер, Брайан Ван Холт, Ши Уигхэм

Описание:
Невозмутимый, крутой и саркастичный Роланд Шарп — воплощенный идеал техасского рейнджера. Одинаково хорошо владеющий острым словцом и верным револьвером, он всегда с блеском выполнял любые задания. Но теперь его ждет поистине суровая миссия: герой должен… круглые сутки охранять пять девушек-болельщиц, ставших свидетелями убийства!
Под видом помощника тренера Шарп примыкает к их команде, еще не ведая, что ему предстоит не столько оборонять дерзких ангелочков, сколько обороняться от них самому. День за днем проказницы изобретают все новые каверзы, дабы вывести своего героически отражающего их нападки стража из себя. Но настает день, когда атака последует совсем с другой стороны…



Релиз от: K.E.N (NNM-CLUB)
Продолжительность: 01:39:55
Качество видео: WEB-DLRip-AVC
Перевод: Профессиональный (двухголосый, закадровый) x2
Субтитры: Русский, английский

Видео: AVC, 1024x426 (2.40:1), 23.976 fps, 2 221 Kbps (0.212 bit/pixel)
Аудио #1: AC-3, 48.0 KHz, 6 ch, 448 Kbps, CBR - двухголосый (Видеосервис)
Аудио #2: AC-3, 48.0 KHz, 6 ch, 448 Kbps, CBR - двухголосый (Tycoon)
Формат : Matroska
Версия формата : Version 2
Размер файла : 2,18 Гбайт
Продолжительность : 1 ч. 39 м.
Общий поток : 3118 Кбит/сек
Дата кодирования : UTC 2015-06-15 16:59:14
Программа кодирования : mkvmerge v5.3.0 ('I could have danced') built on Feb 9 2012 10:38:07
Библиотека кодирования : libebml v1.2.3 + libmatroska v1.3.0
Attachment : Yes

Видео
Идентификатор : 1
Формат : AVC
Формат/Информация : Advanced Video Codec
Профиль формата : High@L4.1
Параметр CABAC формата : Да
Параметр ReFrames формата : 10 кадров
Режим смешивания : Header stripping
Идентификатор кодека : V_MPEG4/ISO/AVC
Продолжительность : 1 ч. 39 м.
Битрейт : 2221 Кбит/сек
Ширина : 1024 пикселя
Высота : 426 пикселей
Соотношение сторон : 2,40:1
Режим частоты кадров : Постоянный
Частота кадров : 23,976 кадра/сек
Цветовое пространство : YUV
Субдискретизация насыщенности : 4:2:0
Битовая глубина : 8 бит
Тип развёртки : Прогрессивная
Бит/(Пиксели*Кадры) : 0.212
Размер потока : 1,51 Гбайт (69%)
Библиотека кодирования : x264 core 142 r2431 ac76440
Настройки программы : cabac=1 / ref=10 / deblock=1:-3:-3 / analyse=0x3:0x133 / me=umh / subme=10 / psy=1 / psy_rd=1.00:0.00 / mixed_ref=1 / me_range=32 / chroma_me=1 / trellis=2 / 8x8dct=1 / cqm=0 / deadzone=21,11 / fast_pskip=1 / chroma_qp_offset=-2 / threads=12 / lookahead_threads=2 / sliced_threads=0 / nr=0 / decimate=0 / interlaced=0 / bluray_compat=0 / constrained_intra=0 / bframes=9 / b_pyramid=2 / b_adapt=2 / b_bias=0 / direct=3 / weightb=1 / open_gop=0 / weightp=2 / keyint=240 / keyint_min=23 / scenecut=40 / intra_refresh=0 / rc=2pass / mbtree=0 / bitrate=2221 / ratetol=1.0 / qcomp=0.60 / qpmin=0 / qpmax=69 / qpstep=4 / cplxblur=20.0 / qblur=0.5 / ip_ratio=1.40 / pb_ratio=1.30 / aq=1:1.00
Язык : English
Default : Да
Forced : Нет

Аудио #1
Идентификатор : 2
Формат : AC-3
Формат/Информация : Audio Coding 3
Расширение режима : CM (complete main)
Параметр Endianness формата : Big
Режим смешивания : Header stripping
Идентификатор кодека : A_AC3
Продолжительность : 1 ч. 39 м.
Вид битрейта : Постоянный
Битрейт : 448 Кбит/сек
Каналы : 6 каналов
Расположение каналов : Front: L C R, Side: L R, LFE
Частота : 48,0 КГц
Битовая глубина : 16 бит
Метод сжатия : С потерями
Размер потока : 320 Мбайт (14%)
Заголовок : Двухголосый (Видеосервис) @ AC3 5.1 448 kbps
Язык : Russian
Default : Да
Forced : Нет

Аудио #2
Идентификатор : 3
Формат : AC-3
Формат/Информация : Audio Coding 3
Расширение режима : CM (complete main)
Параметр Endianness формата : Big
Режим смешивания : Header stripping
Идентификатор кодека : A_AC3
Продолжительность : 1 ч. 39 м.
Вид битрейта : Постоянный
Битрейт : 448 Кбит/сек
Каналы : 6 каналов
Расположение каналов : Front: L C R, Side: L R, LFE
Частота : 48,0 КГц
Битовая глубина : 16 бит
Метод сжатия : С потерями
Размер потока : 320 Мбайт (14%)
Заголовок : Двухголосый (Tycoon) @ AC3 5.1 448 kbps
Язык : Russian
Default : Нет
Forced : Нет

Текст #1
Идентификатор : 4
Формат : UTF-8
Идентификатор кодека : S_TEXT/UTF8
Идентификатор кодека/Информация : UTF-8 Plain Text
Заголовок : R5
Язык : Russian
Default : Нет
Forced : Нет

Текст #2
Идентификатор : 5
Формат : UTF-8
Идентификатор кодека : S_TEXT/UTF8
Идентификатор кодека/Информация : UTF-8 Plain Text
Язык : English
Default : Нет
Forced : Нет

Меню
00:00:00.000 : en:Start
00:06:27.000 : en:Roland
00:09:33.000 : en:Eyewitnesses
00:12:19.000 : en:Busy Dad
00:13:52.000 : en:Cheerleaders
00:17:28.000 : en:Two-Way Mirror
00:19:24.000 : en:24 Hour Protection
00:23:06.000 : en:New Ground Rules
00:26:34.000 : en:"Gun!"
00:29:11.000 : en:Part of the Job
00:31:39.000 : en:Prof. Molly McCarthy
00:35:17.000 : en:Secrets Over Pizza
00:38:46.000 : en:Covering Up
00:42:22.000 : en:Sgt. Ranger Nichols
00:47:52.000 : en:Wheels
00:51:01.000 : en:"Show us what you got."
00:54:56.000 : en:"Tell her you miss her."
00:56:25.000 : en:Chance Meeting
00:59:26.000 : en:Roland's Invitation
01:02:50.000 : en:Grooming Tips
01:06:30.000 : en:Too Sexy
01:09:05.000 : en:Wine and Willie
01:14:24.000 : en:Roll Call
01:16:59.000 : en:Hex Rally
01:18:46.000 : en:Turning up the Heat
01:21:46.000 : en:Good Parent
01:25:11.000 : en:Roland's Angels
01:31:49.000 : en:Six Months Later?



Скачать Крутой.и.цыпочки.Man.of.the.House.(Стивен.Херек).[2005.комедия.боевик.WEB-DLRip-AVC].[DVO]x2+[Sub]x2.torrent без регистрации
Золото ЗОЛОТАЯ РАЗДАЧА! СКАЧАННОЕ НЕ ЗАСЧИТЫВАЕТСЯ! Золото
Дата: Зарегистрирован   [ Тип: внутренний ] Как тут cкачать?
MAGNET ссылка
MAGNET ссылка


Скачать .torrent

12 KB

Статус: проверено DHT
Скачан: торрент - 10 раз, раздача полностью - 23 раз
Размер: 2,18 GB
Оценка:  - (Голосов: 0)
Поблагодарили: 2
Поделиться ссылкой на эту раздачу с друзьями:
В контактеFacebookОдноклассникиTwitterLivejournalМой МирLiveinternet
 

 
Показать сообщения:    


Вы не можете начинать темы
Вы не можете отвечать на сообщения
Вы не можете редактировать свои сообщения
Вы не можете удалять свои сообщения
Вы не можете голосовать в опросах
Вы не можете прикреплять файлы к сообщениям
Вы можете скачивать файлы