Loading...
Error

Скачать Стрелок / Gunmen (Деран Сарафян) [1993, боевик, приключения, WEB-DLRip] [AVO]x3 торрент без регистрации

 
Статистика раздачи
Размер:  1,46 GB   |    Скачан:  10 раз
Сидов:  1  [  0 KB/s  ]  
 
Автор Сообщение

Marsianka

[] 



Информация о фильме
Название: Стрелок
Оригинальное название: Gunmen
Год выхода: 1993
Жанр: боевик, приключения
Режиссер: Деран Сарафян
В ролях: Кристофер Ламберт, Марио Ван Пиблз, Денис Лири, Патрик Стюарт, Кадим Хардисон, Сэлли Кёркленд, Ричард С. Сарафьян, Роберт Харпер, Бренда Бакки, Джеймс Чалк

О фильме:
Карл Сервиго похищает 400 миллионов долларов - деньги крупного наркобарона Лумеса. Он прячет деньги в небольшой яхте и отправляется за своим братом Дени, сидящем в тюрьме, но люди Луиса находят и убивают Карла. В надежде найти деньги наркобарон отправляет своих людей на поиски Дени, который сбегает из тюрьмы. Дени Сервиго ищут все - и полиция, и бандиты, потому что только он может знать название яхты с деньгами.



Страна: США
Продолжительность: 01:31:00
Перевод: Авторский (одноголосый закадровый) - В.Горчаков, А.Гаврилов, Д.Есарев

Файл
Кодек: XviD
Качество: WEB-DLRip с |WEB-DL 1080p BLUEBIRD|
Видео: 720x304, 23.976 fps, 1607 kbps
Аудио#1: AC3, 2 ch, 224 kbps.......Авторский В.Горчаков
Аудио#2: AC3, 2 ch, 224 kbps.......Авторский А.Гаврилов
Аудио#3: AC3, 2 ch, 224 kbps.......Авторский Д.Есарев
Общее
Полное имя : Gunmen(1993) WEB-DLRip.avi
Формат : AVI
Формат/Информация : Audio Video Interleave
Размер файла : 1,46 Гбайт
Продолжительность : 1 ч. 31 м.
Общий поток : 2297 Кбит/сек
Программа кодирования : VirtualDubMod 1.5.10.2 (build 2542/release)
Библиотека кодирования : VirtualDubMod build 2542/release

Видео
Идентификатор : 0
Формат : MPEG-4 Visual
Профиль формата : Advanced Simple@L5
Параметр BVOP формата : 1
Параметр QPel формата : Нет
Параметр GMC формата : Без точки перехода
Параметр матрицы формата : Выборочная
Идентификатор кодека : XVID
Идентификатор кодека/Подсказка : XviD
Продолжительность : 1 ч. 31 м.
Битрейт : 1607 Кбит/сек
Ширина : 720 пикс.
Высота : 304 пикс.
Соотношение сторон : 2,35:1
Частота кадров : 23,976 кадр/сек
Цветовое пространство : YUV
Подвыборка цветности : 4:2:0
Битовая глубина : 8 бит
Тип развёртки : Прогрессивная
Метод сжатия : С потерями
Бит/(Пиксели*Кадры) : 0.306
Размер потока : 1,02 Гбайт (70%)
Библиотека кодирования : XviD 73

Аудио #1
Идентификатор : 1
Формат : AC-3
Формат/Информация : Audio Coding 3
Расширение режима : CM (complete main)
Идентификатор кодека : 2000
Продолжительность : 1 ч. 31 м.
Вид битрейта : Постоянный
Битрейт : 224 Кбит/сек
Канал(ы) : 2 канала(ов)
Расположение каналов : Front: L R
Частота : 48,0 КГц
Битовая глубина : 16 бит
Метод сжатия : С потерями
Размер потока : 146 Мбайт (10%)
Выравнивание : Разделение по промежуткам
Продолжительность промежутка : 42 мс. (1,00 видеокадр)
Время предзагрузки промежутка : 500 ms

Аудио #2
Идентификатор : 2
Формат : AC-3
Формат/Информация : Audio Coding 3
Расширение режима : CM (complete main)
Идентификатор кодека : 2000
Продолжительность : 1 ч. 30 м.
Вид битрейта : Постоянный
Битрейт : 224 Кбит/сек
Канал(ы) : 2 канала(ов)
Расположение каналов : Front: L R
Частота : 48,0 КГц
Битовая глубина : 16 бит
Метод сжатия : С потерями
Размер потока : 146 Мбайт (10%)
Выравнивание : Разделение по промежуткам
Продолжительность промежутка : 42 мс. (1,00 видеокадр)
Время предзагрузки промежутка : 500 ms

Аудио #3
Идентификатор : 3
Формат : AC-3
Формат/Информация : Audio Coding 3
Расширение режима : CM (complete main)
Идентификатор кодека : 2000
Продолжительность : 1 ч. 31 м.
Вид битрейта : Постоянный
Битрейт : 224 Кбит/сек
Канал(ы) : 2 канала(ов)
Расположение каналов : Front: L R
Частота : 48,0 КГц
Битовая глубина : 16 бит
Метод сжатия : С потерями
Размер потока : 146 Мбайт (10%)
Выравнивание : Разделение по промежуткам
Продолжительность промежутка : 42 мс. (1,00 видеокадр)
Время предзагрузки промежутка : 500 ms
Релиз от: Leon-masl



Скачать Стрелок.Gunmen.(Деран.Сарафян).[1993.боевик.приключения.WEB-DLRip].[AVO]x3.torrent без регистрации
Золото ЗОЛОТАЯ РАЗДАЧА! СКАЧАННОЕ НЕ ЗАСЧИТЫВАЕТСЯ! Золото
Дата: Зарегистрирован   [ Тип: внутренний ] Как тут cкачать?
MAGNET ссылка
MAGNET ссылка


Скачать .torrent

15 KB

Статус: проверено DHT
Скачан: торрент - 10 раз, раздача полностью - 5 раз
Размер: 1,46 GB
Оценка:  - (Голосов: 0)
Поблагодарили: 0
Поделиться ссылкой на эту раздачу с друзьями:
В контактеFacebookОдноклассникиTwitterLivejournalМой МирLiveinternet
 

 
Показать сообщения:    


Вы не можете начинать темы
Вы не можете отвечать на сообщения
Вы не можете редактировать свои сообщения
Вы не можете удалять свои сообщения
Вы не можете голосовать в опросах
Вы не можете прикреплять файлы к сообщениям
Вы можете скачивать файлы