Loading...
Error

Скачать Последний настоящий мужчина / Last Man Standing (сезон 04) (Джон Пасквин) [2014-2015, комедия, WEB-DLRip] [720p] [Dub (Paramount Comedy)]+[Eng] торрент без регистрации

 
Статистика раздачи
Размер:  15,48 GB   |    Скачан:  86 раз
Сидов:  1  [  0 KB/s  ]  
 
Автор Сообщение

МихаНЕзатор

[] 

Последний настоящий мужчина / Last Man Standing


Страна: США
Производство: 20th Century Fox Television, 21 Laps Entertainment, Double Wide Productions, Lost Marbles Productions
Год выпуска: 2014-2015
Сезон: 4
Жанр: комедия
Режиссеры: Джон Пасквин, Виктор Гонзалез, Тед Уасс
Авторы сценария: Джек Бёрдитт, Джон Хэллер, Ричард Брэндон Манус

В ролях: Тим Аллен, Нэнси Трэвис, Молли Эфраим, Кейтлин Дивер, Гектор Элизондо, Кристоф Сандерс, Аманда Фуллер, Флинн Моррисон

Описание: Сегодняшний мир принадлежит женщинам, а этот мужчина задался целью вернуть остальным мужчинам достойное место в обществе.

Мужчины создавали цивилизации, изобрели локомотив и спортивный канал ESPN, но им приходится выяснить, что мир им больше не принадлежит. Быть мужественнее чем Майк Бакстер невозможно. Он маркетинговый директор легендарного спортивного магазина, обожает приключения во время командировок, и, конечно же, водит пикап. Хотя на работе Майк круче всех, дома он под каблуком у женщин: у своей жены Ванессы, и у трёх дочерей — 22-летней Кристин, 17-летней Мэнди и 14-летней Ив...

Дата премьеры (мир): 3 октября 2014

Релиз:

Продолжительность: 22х ~00:22:00
Перевод: Профессиональный (полное дублирование) | Paramount Comedy
Субтитры: нет

Качество: WEB-DLRip 720p
Формат: МКV
Видео кодек: AVC
Аудио кодек: АС3
Видео: 1280x714 (16:9), 23.976 fps, MPEG-4 AVC ~4 192 kbps avg
Аудио №1: 48.0 kHz, AC3 Dolby Digital, 2/0 (L,R) ch, ~192 kbps | RUS / Paramount Comedy
Аудио №2: 48.0 kHz, AC3 Dolby Digital, 3/2 (L,C,R,l,r) + LFE ch, ~384 kbps | ENG

1-й сезон здесь
2-й сезон здесь
3-й сезон здесь

АНОНСЫ ПОПУЛЯРНЫХ РАЗДАЧ
General
Unique ID : 240618359483032215950393522144127092460 (0xB505690DFE473431999D1B6CD96A06EC)
Complete name : Last.Man.Standing.2011.S04E01.720p.WEB.DL.Paramount.Comedy.mkv
Format : Matroska
Format version : Version 4 / Version 2
File size : 747 MiB
Duration : 21mn 28s
Overall bit rate : 4 865 Kbps
Encoded date : UTC 2015-08-03 03:03:28
Writing application : mkvmerge v7.9.0 ('Birds') 64bit
Writing library : libebml v1.3.1 + libmatroska v1.4.2

Video
ID : 1
Format : AVC
Format/Info : Advanced Video Codec
Format profile : High@L3.1
Format settings, CABAC : No
Format settings, ReFrames : 2 frames
Codec ID : V_MPEG4/ISO/AVC
Duration : 21mn 28s
Bit rate : 4 192 Kbps
Width : 1 280 pixels
Height : 714 pixels
Display aspect ratio : 16:9
Frame rate mode : Constant
Frame rate : 23.976 fps
Color space : YUV
Chroma subsampling : 4:2:0
Bit depth : 8 bits
Scan type : Progressive
Bits/(Pixel*Frame) : 0.191
Stream size : 644 MiB (86%)
Language : English
Default : Yes
Forced : No
Color primaries : BT.709
Transfer characteristics : BT.709
Matrix coefficients : BT.709
Color range : Limited

Audio #1
ID : 2
Format : AC-3
Format/Info : Audio Coding 3
Mode extension : CM (complete main)
Format settings, Endianness : Big
Codec ID : A_AC3
Duration : 21mn 28s
Bit rate mode : Constant
Bit rate : 192 Kbps
Channel(s) : 2 channels
Channel positions : Front: L R
Sampling rate : 48.0 KHz
Bit depth : 16 bits
Compression mode : Lossy
Stream size : 29.5 MiB (4%)
Language : Russian
Default : Yes
Forced : No

Audio #2
ID : 3
Format : AC-3
Format/Info : Audio Coding 3
Mode extension : CM (complete main)
Format settings, Endianness : Big
Codec ID : A_AC3
Duration : 21mn 28s
Bit rate mode : Constant
Bit rate : 384 Kbps
Channel(s) : 6 channels
Channel positions : Front: L C R, Side: L R, LFE
Sampling rate : 48.0 KHz
Bit depth : 16 bits
Compression mode : Lossy
Stream size : 59.0 MiB (8%)
Language : English
Default : No
Forced : No



Скачать Последний.настоящий.мужчина.Last.Man.Standing.(сезон.04).(Джон.Пасквин).[2014-2015.комедия.WEB-DLRip].[720p].[Dub.(Paramount.Comedy)]+[Eng].torrent без регистрации
Золото ЗОЛОТАЯ РАЗДАЧА! СКАЧАННОЕ НЕ ЗАСЧИТЫВАЕТСЯ! Золото
Дата: Зарегистрирован   [ Тип: внутренний ] Как тут cкачать?
MAGNET ссылка
MAGNET ссылка


Скачать .torrent

42 KB

Статус: проверено DHT
Скачан: торрент - 86 раз, раздача полностью - 0 раз
Размер: 15,48 GB
Оценка:  - (Голосов: 0)
Поблагодарили: 1
Поделиться ссылкой на эту раздачу с друзьями:
В контактеFacebookОдноклассникиTwitterLivejournalМой МирLiveinternet
 

 
Показать сообщения:    


Вы не можете начинать темы
Вы не можете отвечать на сообщения
Вы не можете редактировать свои сообщения
Вы не можете удалять свои сообщения
Вы не можете голосовать в опросах
Вы не можете прикреплять файлы к сообщениям
Вы можете скачивать файлы