Loading...
Error

Скачать Черное зеркало / Black Mirror (Сезон 03) (Оуэн Харрис, Карл Тиббеттс, Отто Баферст) [2016, фантастика, триллер, драма, WEBRip] [MVO] (NewStudio) торрент без регистрации

 
Статистика раздачи
Размер:  4,3 GB   |    Скачан:  32 раза
Сидов:  1  [  0 KB/s  ]  
 
Автор Сообщение

leon030982

[] 


Черное зеркало | Black Mirror


• Год выпуска: 2016
• Страна: Великобритания
• Жанр: триллер, драма,
• Продолжительность: ~ 00:59:00
• Перевод: Профессиональный (многоголосый закадровый) | NewStudio

• Режиссёр: Отто Баферст, Эрос Лин, Брайан Уэлш, Оуэн Харрис, Карл Тиббеттс

• В ролях: Тоби Кеббелл, Джоди Уиттакер, Том Каллен, Дэниэл Калуя, Джессика Браун-Финдлэй, Рори Киннер, Лидия Уилсон, Руперт Эверетт, Джулия Дэвис, Баши, Брайони Нилан-Фрэнсис, Линдси Дункан, Дональд Самптер, Том Гудман-Хилл, Анна Уилсон-Джонс, Патрик Кеннеди, Аластер Маккензи, Четна Пандья
• Описание: «Чёрное зеркало» — британский фантастический телесериал, созданный по сценарию Чарли Брукера. Эпизоды не связаны между собой ни сюжетом, ни актёрами, ни временем или местом повествования. По словам Брукера, все сюжеты объединяет лишь сатира на тот образ жизни, что распространён в современном обществе. Сквозная тема — влияние информационных технологий на человеческие отношения.


• Качество: WEBRip
• Формат: AVI
• Видео: XviD, 704x368 (1,913), 25 fps, ~1400 kbps
• Аудио #1: MP3, 48 kHz, 2 ch, 128 kbps, CBR - Rus
• Аудио #2: MP3, 48 kHz, 2 ch, 128 kbps, CBR - Eng
• Субтитры: отсутствуют
Перевод: Ирина Гвозденко
рекламы нет

Код:

Общее
Полное имя                               : X:\ATorrent\Black Mirror (Season 03) NewStudio\Black.Mirror.[S03E01].XviD.NewStudio.[qqss44].avi
Формат                                   : AVI
Формат/Информация                        : Audio Video Interleave
Размер файла                             : 751 Мбайт
Продолжительность                        : 1 ч. 2 м.
Общий поток                              : 1674 Кбит/сек
Программа кодирования                    : VirtualDubMod 1.5.10.3 | www.virtualdub-fr.org || (build 2550/release)
Библиотека кодирования                   : VirtualDubMod build 2550/release
Видео
Идентификатор                            : 0
Формат                                   : MPEG-4 Visual
Профиль формата                          : Advanced Simple@L5
Параметр BVOP формата                    : 2
Параметр QPel формата                    : Нет
Параметр GMC формата                     : Без точки перехода
Параметр матрицы формата                 : Выборочная
Идентификатор кодека                     : XVID
Идентификатор кодека/Подсказка           : XviD
Продолжительность                        : 1 ч. 2 м.
Битрейт                                  : 1404 Кбит/сек
Ширина                                   : 704 пикселя
Высота                                   : 368 пикселей
Соотношение сторон                       : 1,913
Частота кадров                           : 25,000 кадров/сек
Цветовое пространство                    : YUV
Субдискретизация насыщенности            : 4:2:0
Битовая глубина                          : 8 бит
Тип развёртки                            : Прогрессивная
Метод сжатия                             : С потерями
Бит/(Пиксели*Кадры)                      : 0.217
Размер потока                            : 630 Мбайт (84%)
Библиотека кодирования                   : XviD 73
Аудио #1
Идентификатор                            : 1
Формат                                   : MPEG Audio
Версия формата                           : Version 1
Профиль формата                          : Layer 3
Режим                                    : Joint stereo
Расширение режима                        : MS Stereo
Идентификатор кодека                     : 55
Идентификатор кодека/Подсказка           : MP3
Продолжительность                        : 1 ч. 2 м.
Вид битрейта                             : Постоянный
Битрейт                                  : 128 Кбит/сек
Каналы                                   : 2 канала
Частота                                  : 48,0 КГц
Метод сжатия                             : С потерями
Размер потока                            : 57,4 Мбайт (8%)
Выравнивание                             : Соединение по промежуткам
Продолжительность промежутка             : 40  мс. (1,00 видеокадр)
Время предзагрузки промежутка            : 504  мс.
Аудио #2
Идентификатор                            : 2
Формат                                   : MPEG Audio
Версия формата                           : Version 1
Профиль формата                          : Layer 3
Режим                                    : Joint stereo
Расширение режима                        : MS Stereo
Идентификатор кодека                     : 55
Идентификатор кодека/Подсказка           : MP3
Продолжительность                        : 1 ч. 2 м.
Вид битрейта                             : Постоянный
Битрейт                                  : 128 Кбит/сек
Каналы                                   : 2 канала
Частота                                  : 48,0 КГц
Метод сжатия                             : С потерями
Размер потока                            : 57,4 Мбайт (8%)
Выравнивание                             : Соединение по промежуткам
Продолжительность промежутка             : 40  мс. (1,00 видеокадр)
Время предзагрузки промежутка            : 504  мс.
Когда раздача ведётся путём добавления новых серий, при каждом добавлении создётся новый торрент. Чтобы начать докачку новой серии, пользователям необходимо сделать следующее:
(1) остановить скачивание,
(2) удалить старый торрент у себя из клиента (старые серии удалять не надо),
(3) скачать новый торрент и запустить его у себя в клиенте вместо старого, при этом указать клиенту путь в старую папку, куда и должно происходить скачивание новых серий.
Ваш клиент при этом должен произвести хеширование (проверку) старой папки (если не производит сам - помогите ему сделать это), и будет докачивать только те серии, которых у вас ещё нет. Старые серии при этом не удаляются, а продолжают раздаваться!
Eсли вы уже удалили старые серии, то предотвратить повторную закачку старых серий можно, отжав галочку в соответсвующих местах при запуске нового торрента. По возможности, желательно не удалять старые серии как можно дольше, чтобы релизёр не столько продолжал раздавать старые серии, а смог сконцентрироваться на новых.




Скачать Черное.зеркало.Black.Mirror.(Сезон.03).(Оуэн.Харрис.Карл.Тиббеттс.Отто.Баферст).[2016.фантастика.триллер.драма.WEBRip].[MVO].(NewStudio).torrent без регистрации
Золото ЗОЛОТАЯ РАЗДАЧА! СКАЧАННОЕ НЕ ЗАСЧИТЫВАЕТСЯ! Золото
Дата: Зарегистрирован   [ Тип: внутренний ] Как тут cкачать?
MAGNET ссылка
MAGNET ссылка


Скачать .torrent

24 KB

Статус: проверено DHT
Скачан: торрент - 32 раз, раздача полностью - 43 раз
Размер: 4,3 GB
Оценка:  - (Голосов: 0)
Поблагодарили: 2
Поделиться ссылкой на эту раздачу с друзьями:
В контактеFacebookОдноклассникиTwitterLivejournalМой МирLiveinternet
 

 
Показать сообщения:    


Вы не можете начинать темы
Вы не можете отвечать на сообщения
Вы не можете редактировать свои сообщения
Вы не можете удалять свои сообщения
Вы не можете голосовать в опросах
Вы не можете прикреплять файлы к сообщениям
Вы можете скачивать файлы