Loading...
Error

Скачать Голиаф / Goliath (Сезон 01, серии 01 из 08) (Лоуренс Триллинг, Алик Сахаров, Билл Д Элиа) [2016, драма, WEBRip] [DVO] (Кубик в Кубе) торрент без регистрации

 
Статистика раздачи
Размер:  1,07 GB   |    Скачан:  9 раз
Сидов:  1  [  0 KB/s  ]  
 
Автор Сообщение

leon030982

[] 


Голиаф | Goliath


• Год выпуска: 2016
• Страна: США
• Жанр: драма
• Продолжительность: ~ 00:55:00
• Перевод: Профессиональный (двухголосый, закадровый) | Кубик в Кубе

• Режиссёр: Лоуренс Триллинг, Алик Сахаров, Билл Д Элиа

• В ролях: Билли Боб Торнтон, Уильям Хёрт, Мария Белло, Оливия Тирлби, Нина Арианда, Молли Паркер, Таня Рэймонд, Сара Уайнтер, Бритен Далтон, Дэймон Гаптон

• Описание: В руки опального адвоката, гоняющегося за машинами скорой помощи в поисках новых клиентов, попадает дело, которое может принести ему искупление или, по крайней мере, возможность отомстить фирме, вышвырнувшей его на улицу



• Качество: WEBRip
• Формат: AVI
• Видео: XviD, ~ 1998 Кбит/с, 720x368, 23,976 fps
• Аудио #1: AC3, 48 kHz, 6 ch, 384 kbps, CBR - Rus
• Аудио #2: AC3, 48 kHz, 6 ch, 384 kbps, CBR - Eng
• Субтитры: отсутствуют

Работа со звуком: messafan
Рип: ЛП
General
Complete name : E:\Goliath Season 1 CasStudio.TV\Goliath.s01e01.rus.eng.CasStudio.TV.avi
Format : AVI
Format/Info : Audio Video Interleave
File size : 1.07 GiB
Duration : 54mn 49s
Overall bit rate : 2 802 Kbps
Writing application : VirtualDubMod 1.5.10.2 (build 2540/release)
Writing library : VirtualDubMod build 2540/release

Video
ID : 0
Format : MPEG-4 Visual
Format profile : Advanced Simple@L5
Format settings, BVOP : 1
Format settings, QPel : No
Format settings, GMC : No warppoints
Format settings, Matrix : Default (MPEG)
Codec ID : XVID
Codec ID/Hint : XviD
Duration : 54mn 49s
Bit rate : 1 912 Kbps
Width : 720 pixels
Height : 368 pixels
Display aspect ratio : 1.957
Frame rate : 23.976 fps
Color space : YUV
Chroma subsampling : 4:2:0
Bit depth : 8 bits
Scan type : Progressive
Compression mode : Lossy
Bits/(Pixel*Frame) : 0.301
Stream size : 750 MiB (68%)
Writing library : XviD 73

Audio #1
ID : 1
Format : AC-3
Format/Info : Audio Coding 3
Mode extension : CM (complete main)
Format settings, Endianness : Big
Codec ID : 2000
Duration : 54mn 49s
Bit rate mode : Constant
Bit rate : 384 Kbps
Channel(s) : 6 channels
Channel positions : Front: L C R, Side: L R, LFE
Sampling rate : 48.0 KHz
Compression mode : Lossy
Stream size : 151 MiB (14%)
Alignment : Split accross interleaves

Audio #2
ID : 2
Format : AC-3
Format/Info : Audio Coding 3
Mode extension : CM (complete main)
Format settings, Endianness : Big
Codec ID : 2000
Duration : 54mn 49s
Bit rate mode : Constant
Bit rate : 384 Kbps
Channel(s) : 6 channels
Channel positions : Front: L C R, Side: L R, LFE
Sampling rate : 48.0 KHz
Compression mode : Lossy
Stream size : 151 MiB (14%)
Alignment : Split accross interleaves
Когда раздача ведётся путём добавления новых серий, при каждом добавлении создётся новый торрент. Чтобы начать докачку новой серии, пользователям необходимо сделать следующее:
(1) остановить скачивание,
(2) удалить старый торрент у себя из клиента (старые серии удалять не надо),
(3) скачать новый торрент и запустить его у себя в клиенте вместо старого, при этом указать клиенту путь в старую папку, куда и должно происходить скачивание новых серий.
Ваш клиент при этом должен произвести хеширование (проверку) старой папки (если не производит сам - помогите ему сделать это), и будет докачивать только те серии, которых у вас ещё нет. Старые серии при этом не удаляются, а продолжают раздаваться!
Eсли вы уже удалили старые серии, то предотвратить повторную закачку старых серий можно, отжав галочку в соответсвующих местах при запуске нового торрента. По возможности, желательно не удалять старые серии как можно дольше, чтобы релизёр не столько продолжал раздавать старые серии, а смог сконцентрироваться на новых.




Скачать Голиаф.Goliath.(Сезон.01.серии.01.из.08).(Лоуренс.Триллинг.Алик.Сахаров.Билл.Д.Элиа).[2016.драма.WEBRip].[DVO].(Кубик.в.Кубе).torrent без регистрации
Золото ЗОЛОТАЯ РАЗДАЧА! СКАЧАННОЕ НЕ ЗАСЧИТЫВАЕТСЯ! Золото
Дата: Зарегистрирован   [ Тип: внутренний ] Как тут cкачать?
MAGNET ссылка
MAGNET ссылка


Скачать .torrent

12 KB

Статус: проверено DHT
Скачан: торрент - 9 раз, раздача полностью - 11 раз
Размер: 1,07 GB
Оценка:  - (Голосов: 0)
Поблагодарили: 0
Поделиться ссылкой на эту раздачу с друзьями:
В контактеFacebookОдноклассникиTwitterLivejournalМой МирLiveinternet
 

 
Показать сообщения:    


Вы не можете начинать темы
Вы не можете отвечать на сообщения
Вы не можете редактировать свои сообщения
Вы не можете удалять свои сообщения
Вы не можете голосовать в опросах
Вы не можете прикреплять файлы к сообщениям
Вы можете скачивать файлы