Loading...
Error

Скачать Серебряная пуля / Silver Bullet (Дэниэл Эттиэс) [1985, ужасы, триллер, драма, детектив, экранизация, WEB-DLRip] [MVO] торрент без регистрации

 
Статистика раздачи
Размер:  745 MB   |    Скачан:  9 раз
Сидов:  1  [  0 KB/s  ]  
 
Автор Сообщение

Marsianka

[] 

Информация о фильме
Название: Серебряная пуля
Оригинальное название: Silver Bullet
Год выхода: 1985
Жанр: ужасы, триллер, драма, детектив, экранизация
Режиссер: Дэниэл Эттиэс
В ролях: Кори Хэйм, Эверетт Макгилл, Гэри Бьюзи, Робин Гроувз, Леон Рассом, Терри О’Куинн, Меган Фоллоуз.

О фильме:
Маленький американский городок охвачен страхом: по ночам, при полной луне кто-то зверски убивает его жителей. Кто-то покрытый шерстью, таинственный и неуловимый. Добровольцы, отправившиеся на поиски убийцы, сами становятся его жертвами. Лишь 13-летний Марти, прикованный к инвалидной коляске, убежден, что убийства совершает оборотень, против которого бессильно любое оружие, кроме серебряной пули. Марти не только видел чудовище собственными глазами, но даже ранил в глаз. Но никто не верит рассказам парнишки, кроме его дяди Реда. А между тем оборотень уже готов вновь выйти на охоту…



Страна: США, Нидерланды
Студия: Dino De Laurentiis Productions, Famous Films N.V., International Film Corporation (II), Paramount Pictures
Продолжительность: 01:34:50
Перевод: Профессиональный (многоголосый, закадровый)

Файл
Кодек: XviD
Качество: WEB-DLRip
Видео: 688x288 (2.39:1), 23.976 fps, XviD build 73 ~961 kbps avg, 0.20 bit/pixel
Звук: 48 kHz, MPEG Layer 3, 2 ch, ~128.00 kbps avg
Субтитры: Отсутствует

Семпл
General
Complete name : D:Изготовление рипаSilver Bullet.HDRip by shkiper.avi
Format : AVI
Format/Info : Audio Video Interleave
File size : 745 MiB
Duration : 1h 34mn
Overall bit rate : 1 099 Kbps
Writing application : VirtualDubMod 1.5.10.3 | www.virtualdub-fr.org || (build 2550/release)
Writing library : VirtualDubMod build 2550/release

Video
ID : 0
Format : MPEG-4 Visual
Format profile : Advanced Simple@L5
Format settings, BVOP : Yes
Format settings, QPel : No
Format settings, GMC : No warppoints
Format settings, Matrix : Custom
Codec ID : XVID
Codec ID/Hint : XviD
Duration : 1h 34mn
Bit rate : 962 Kbps
Width : 688 pixels
Height : 288 pixels
Display aspect ratio : 2.40:1
Frame rate : 23.976 fps
Color space : YUV
Chroma subsampling : 4:2:0
Bit depth : 8 bits
Scan type : Progressive
Compression mode : Lossy
Bits/(Pixel*Frame) : 0.202
Stream size : 652 MiB (88%)
Writing library : XviD 73

Audio
ID : 1
Format : MPEG Audio
Format version : Version 1
Format profile : Layer 3
Codec ID : 55
Codec ID/Hint : MP3
Duration : 1h 34mn
Bit rate mode : Constant
Bit rate : 128 Kbps
Channel count : 2 channels
Sampling rate : 48.0 KHz
Compression mode : Lossy
Stream size : 86.6 MiB (12%)
Alignment : Aligned on interleaves
Interleave, duration : 42 ms (1.00 video frame)
Interleave, preload duration : 504 ms
Writing library : LAME3.99r
Encoding settings : -m s -V 4 -q 2 -lowpass 17 -b 128
Релиз от:



Скачать Серебряная.пуля.Silver.Bullet.(Дэниэл.Эттиэс).[1985.ужасы.триллер.драма.детектив.экранизация.WEB-DLRip].[MVO].torrent без регистрации
Золото ЗОЛОТАЯ РАЗДАЧА! СКАЧАННОЕ НЕ ЗАСЧИТЫВАЕТСЯ! Золото
Дата: Зарегистрирован   [ Тип: внутренний ] Как тут cкачать?
MAGNET ссылка
MAGNET ссылка


Скачать .torrent

15 KB

Статус: проверено DHT
Скачан: торрент - 9 раз, раздача полностью - 3 раз
Размер: 745 MB
Оценка:  - (Голосов: 0)
Поблагодарили: 0
Поделиться ссылкой на эту раздачу с друзьями:
В контактеFacebookОдноклассникиTwitterLivejournalМой МирLiveinternet
 

 
Показать сообщения:    


Вы не можете начинать темы
Вы не можете отвечать на сообщения
Вы не можете редактировать свои сообщения
Вы не можете удалять свои сообщения
Вы не можете голосовать в опросах
Вы не можете прикреплять файлы к сообщениям
Вы можете скачивать файлы