Loading...
Error

Скачать Тайны и ложь / Secrets and Lies (02х01-08 из 10) (Адам Аркин и др.) [2016, драма, детектив, триллер, криминал, WEBRip] [DVO (Sunshine Studio)] торрент без регистрации

 
Статистика раздачи
Размер:  3,86 GB   |    Скачан:  80 раз
Сидов:  1  [  0 KB/s  ]  
 
Автор Сообщение

МихаНЕзатор

[] 

Тайны и ложь / Secrets and Lies


Страна: США
Производство: ABC Studios, Hoodlum Entertainment, Kapital Entertainment
Год выпуска: 2016
Сезон: 2
Жанр: драма, детектив, триллер, криминал
Режиссеры: Адам Аркин, Тимоти Басфилд, Кейт Дэннис
Авторы сценария: Барби Клигман, Ной Нельсон, Стефен Ирвин

В ролях: Майкл Или, Джульетт Льюис, Джордана Брюстер, Мекиа Кокс, Чарли Барнетт, Терри О’Куинн

Описание: Второй сезон посвящён расследованию убийства жены наследника частной инвестиционной компании...

Дата премьеры (мир): 25 сентября 2016



Продолжительность: х ~00:42:00
Перевод: Любительский (двухголосый, закадровый) | Sunshine Studio
Субтитры: нет

Качество: WEBRip
Формат: АVI
Видео кодек: XviD
Аудио кодек: АС3
Видео: 720x400 (16:9), 23.976 fps, XviD ~1 400 kbps avg
Аудио: 48.0 kHz, AC3 Dolby Digital, 2/0 (L,R) ch, ~192 kbps

АНОНСЫ ПОПУЛЯРНЫХ РАЗДАЧ


Торрент обновлён, добавлена 8-я серия!
General
Complete name : Secrets.and.Lies.US.S02E02.400p.SunshineStudio.avi
Format : AVI
Format/Info : Audio Video Interleave
File size : 476 MiB
Duration : 41mn 35s
Overall bit rate : 1 601 Kbps
Writing application : VirtualDubMod 1.5.10.3 | (build 2550/release)
Writing library : VirtualDubMod build 2550/release

Video #0
ID : 0
Format : MPEG-4 Visual
Format profile : Advanced Simple@L5
Format settings, BVOP : 2
Format settings, QPel : No
Format settings, GMC : No warppoints
Format settings, Matrix : Default (H.263)
Muxing mode : Packed bitstream
Codec ID : XVID
Codec ID/Hint : XviD
Duration : 41mn 35s
Bit rate : 1 337 Kbps
Width : 720 pixels
Height : 400 pixels
Display aspect ratio : 16:9
Frame rate : 23.976 fps
Color space : YUV
Chroma subsampling : 4:2:0
Bit depth : 8 bits
Scan type : Progressive
Compression mode : Lossy
Bits/(Pixel*Frame) : 0.194
Stream size : 398 MiB (83%)
Writing library : XviD 1.2.1 (UTC 2008-12-04)

Audio #1
ID : 1
Format : AC-3
Format/Info : Audio Coding 3
Mode extension : CM (complete main)
Format settings, Endianness : Big
Codec ID : 2000
Duration : 41mn 35s
Bit rate mode : Constant
Bit rate : 192 Kbps
Channel(s) : 2 channels
Channel positions : Front: L R
Sampling rate : 48.0 KHz
Bit depth : 16 bits
Compression mode : Lossy
Stream size : 57.1 MiB (12%)
Alignment : Split accross interleaves



Скачать Тайны.и.ложь.Secrets.and.Lies.(02х01-08.из.10).(Адам.Аркин.и.др.).[2016.драма.детектив.триллер.криминал.WEBRip].[DVO.(Sunshine.Studio)].torrent без регистрации
Золото ЗОЛОТАЯ РАЗДАЧА! СКАЧАННОЕ НЕ ЗАСЧИТЫВАЕТСЯ! Золото
Дата: Зарегистрирован   [ Тип: внутренний ] Как тут cкачать?
MAGNET ссылка
MAGNET ссылка


Скачать .torrent

21 KB

Статус: проверено DHT
Скачан: торрент - 80 раз, раздача полностью - 0 раз
Размер: 3,86 GB
Оценка:  5 (Голосов: 1)
Поблагодарили: 1
Поделиться ссылкой на эту раздачу с друзьями:
В контактеFacebookОдноклассникиTwitterLivejournalМой МирLiveinternet
 

 
Показать сообщения:    


Вы не можете начинать темы
Вы не можете отвечать на сообщения
Вы не можете редактировать свои сообщения
Вы не можете удалять свои сообщения
Вы не можете голосовать в опросах
Вы не можете прикреплять файлы к сообщениям
Вы можете скачивать файлы