Loading...
Error

Скачать Тайны и ложь / Secrets and Lies (02х01-07 из 10) (Адам Аркин и др.) [2016, драма, детектив, триллер, криминал, WEBRip] [720p] [DVO (Sunshine Studio)] торрент без регистрации

 
Статистика раздачи
Размер:  5,58 GB   |    Скачан:  78 раз

Полного источника не было: 24 минуты

 
Автор Сообщение

МихаНЕзатор

[] 

Тайны и ложь / Secrets and Lies


Страна: США
Производство: ABC Studios, Hoodlum Entertainment, Kapital Entertainment
Год выпуска: 2016
Сезон: 2
Жанр: драма, детектив, триллер, криминал
Режиссеры: Адам Аркин, Тимоти Басфилд, Кейт Дэннис
Авторы сценария: Барби Клигман, Ной Нельсон, Стефен Ирвин

В ролях: Майкл Или, Джульетт Льюис, Джордана Брюстер, Мекиа Кокс, Чарли Барнетт, Терри О’Куинн

Описание: Второй сезон посвящён расследованию убийства жены наследника частной инвестиционной компании...

Дата премьеры (мир): 25 сентября 2016



Продолжительность: х ~00:42:00
Перевод: Любительский (двухголосый, закадровый) | Sunshine Studio
Субтитры: нет

Качество: WEBRip 720p
Формат: МКV
Видео кодек: AVC
Аудио кодек: АС3
Видео: 1280x720 (16:9), 23.976 fps, MPEG-4 AVC ~2 800 kbps avg
Аудио: 48.0 kHz, AC3 Dolby Digital, 2/0 (L,R) ch, ~192 kbps

АНОНСЫ ПОПУЛЯРНЫХ РАЗДАЧ


Торрент обновлён, добавлена 7-я серия!
General
Unique ID : 214199928238504121008195214562212642708 (0xA12567D49DB468B7986C3C82486AFF94)
Complete name : Secrets.and.Lies.US.S02E02.720p.SunshineStudio.mkv
Format : Matroska
Format version : Version 4 / Version 2
File size : 905 MiB
Duration : 41mn 35s
Overall bit rate : 3 041 Kbps
Encoded date : UTC 2016-10-03 10:21:26
Writing application : mkvmerge v8.3.0 ('Over the Horizon') 64bit
Writing library : libebml v1.3.1 + libmatroska v1.4.2

Video #1
ID : 1
Format : AVC
Format/Info : Advanced Video Codec
Format profile : High@L3.1
Format settings, CABAC : Yes
Format settings, ReFrames : 4 frames
Codec ID : V_MPEG4/ISO/AVC
Duration : 41mn 35s
Bit rate : 2 789 Kbps
Width : 1 280 pixels
Height : 720 pixels
Display aspect ratio : 16:9
Frame rate mode : Constant
Frame rate : 23.976 fps
Color space : YUV
Chroma subsampling : 4:2:0
Bit depth : 8 bits
Scan type : Progressive
Bits/(Pixel*Frame) : 0.126
Stream size : 830 MiB (92%)
Writing library : x264 core 130 r2273 b3065e6
Encoding settings : cabac=1 / ref=1 / deblock=1:0:0 / analyse=0x3:0x113 / me=hex / subme=2 / psy=1 / psy_rd=1.00:0.10 / mixed_ref=0 / me_range=16 / chroma_me=1 / trellis=0 / 8x8dct=1 / cqm=0 / deadzone=21,11 / fast_pskip=1 / chroma_qp_offset=0 / threads=6 / lookahead_threads=2 / sliced_threads=0 / nr=0 / decimate=1 / interlaced=0 / bluray_compat=0 / constrained_intra=0 / bframes=3 / b_pyramid=2 / b_adapt=1 / b_bias=0 / direct=1 / weightb=1 / open_gop=0 / weightp=1 / keyint=250 / keyint_min=23 / scenecut=40 / intra_refresh=0 / rc_lookahead=10 / rc=crf / mbtree=1 / crf=17.0 / qcomp=0.60 / qpmin=0 / qpmax=69 / qpstep=4 / ip_ratio=1.40 / aq=1:1.00
Default : Yes
Forced : No

Audio #2
ID : 2
Format : AC-3
Format/Info : Audio Coding 3
Mode extension : CM (complete main)
Format settings, Endianness : Big
Codec ID : A_AC3
Duration : 41mn 35s
Bit rate mode : Constant
Bit rate : 192 Kbps
Channel(s) : 2 channels
Channel positions : Front: L R
Sampling rate : 48.0 KHz
Bit depth : 16 bits
Compression mode : Lossy
Stream size : 57.1 MiB (6%)
Default : Yes
Forced : No



Скачать Тайны.и.ложь.Secrets.and.Lies.(02х01-07.из.10).(Адам.Аркин.и.др.).[2016.драма.детектив.триллер.криминал.WEBRip].[720p].[DVO.(Sunshine.Studio)].torrent без регистрации
Золото ЗОЛОТАЯ РАЗДАЧА! СКАЧАННОЕ НЕ ЗАСЧИТЫВАЕТСЯ! Золото
Дата: Зарегистрирован   [ Тип: внутренний ] Как тут cкачать?
MAGNET ссылка
MAGNET ссылка


Скачать .torrent

29 KB

Статус: проверено DHT
Скачан: торрент - 78 раз, раздача полностью - 1 раз
Размер: 5,58 GB
Оценка:  - (Голосов: 0)
Поблагодарили: 0
Поделиться ссылкой на эту раздачу с друзьями:
В контактеFacebookОдноклассникиTwitterLivejournalМой МирLiveinternet
 

 
Показать сообщения:    


Вы не можете начинать темы
Вы не можете отвечать на сообщения
Вы не можете редактировать свои сообщения
Вы не можете удалять свои сообщения
Вы не можете голосовать в опросах
Вы не можете прикреплять файлы к сообщениям
Вы можете скачивать файлы