Loading...
Error

Скачать Агенты Щ.И.Т. / Marvel's Agents of S.H.I.E.L.D. (04х01-06 из 22) (Джесси Бокко и др.) [2016, боевик, фантастика, драма, WEB-DLRip] [MVO (LostFilm)]+[Eng] торрент без регистрации

 
Статистика раздачи
Размер:  2,41 GB   |    Скачан:  107 раз
Сидов:  1  [  0 KB/s  ]  
 
Автор Сообщение

МихаНЕзатор

[] 

Агенты Щ.И.Т.а / Agents of S.H.I.E.L.D.


Год выпуска: 2016
Выпущено: США / Marvel Television
Жанр: фантастика, боевик, драма
Продолжительность: ~00:44:00
Перевод: 1)Профессиональный (многоголосый закадровый) LostFilm
Субтитры: нет
Режиссёр: Дэвид Стрейтон / David Straiton, Джосс Уидон / Joss Whedon

В ролях: Кларк Грегг (Phil Coulson), Минг-На (Melinda May), Бретт Далтон (Grant Ward), Хлоя Беннет (Skye), Йен де Кестекер (Leo Fitz), Элизабет Хенстридж (Jemma Simmons), Рон Гласс (Dr. Streiten), Шеннон Лучио (Debbie), Дж. Аугуст Ричардс (Mike Peterson), Коби Смолдерс (Maria Hill), Даг Симпсон (FBI Agent)

Описание: Агент Фил Колсон (Кларк Грегг) и его коллеги из секретной организации Щ.И.Т. — бойцы невидимого фронта, которые стоят на защите мира и спокойствия жителей Земли. Многое изменилось после вторжения пришельцев в Нью-Йорк. Начали появляться новые супергерои, которые далеко не всегда выступают на стороне добра и справедливости. Кроме того, людям стали доступны новые технологии и даже артефакты внеземного происхождения, которые могут натворить немало бед, если попадут не в те руки. За всем этим следит таинственный Щ.И.Т. и если что-то выйдет из-под контроля, лучшие агенты организации найдут способ ликвидировать угрозу.


Рип чистый. Без посторонних надписей и звуков

Тип релиза: WEB-DLRip [Marvels.Agents.of.S.H.I.E.L.D.S04EXX.1080p.WEB-DL.DD5.1.H.264-СtrlHD]
Контейнер: AVI
Видео: 656x368 (1.76:1), 23.976 fps, XviD build 73 ~1052 kbps avg, 0.18 bit/pixel
Аудио #1: 48 kHz, MP3, 2/0 (L,R) ch, ~128.00 kbps avg (RUS) LostFilm
Аудио #2: 48 kHz,MP3, 2/0 (L,R) ch, ~128.00 kbps avg (ENG)

АНОНСЫ ПОПУЛЯРНЫХ РАЗДАЧ


Торрент обновлён, добавлена 6-я серия!

Код:


Общее
Полное имя                               : S:ЩИТ 04�1.avi
Формат                                   : AVI
Формат/Информация                        : Audio Video Interleave
Размер файла                             : 407 Мбайт
Продолжительность                        : 43 м.
Общий поток                              : 1321 Кбит/сек
Программа кодирования                    : VirtualDubMod 1.5.10.3 | www.virtualdub-fr.org || (build 2550/release)
Библиотека кодирования                   : VirtualDubMod build 2550/release

Видео
Идентификатор                            : 0
Формат                                   : MPEG-4 Visual
Профиль формата                          : Advanced Simple@L5
Параметр BVOP формата                    : 1
Параметр QPel формата                    : Нет
Параметр GMC формата                     : Без точки перехода
Параметр матрицы формата                 : Выборочная
Идентификатор кодека                     : DX50
Идентификатор кодека/Подсказка           : DivX 5
Продолжительность                        : 43 м.
Битрейт                                  : 1052 Кбит/сек
Ширина                                   : 656 пикселей
Высота                                   : 368 пикселей
Соотношение сторон                       : 16:9
Частота кадров                           : 23,976 кадра/сек
Цветовое пространство                    : YUV
Субдискретизация насыщенности            : 4:2:0
Битовая глубина                          : 8 бит
Тип развёртки                            : Прогрессивная
Метод сжатия                             : С потерями
Бит/(Пиксели*Кадры)                      : 0.182
Размер потока                            : 324 Мбайт (80%)
Библиотека кодирования                   : XviD 67

Аудио #1
Идентификатор                            : 1
Формат                                   : MPEG Audio
Версия формата                           : Version 1
Профиль формата                          : Layer 3
Режим                                    : Joint stereo
Расширение режима                        : MS Stereo
Идентификатор кодека                     : 55
Идентификатор кодека/Подсказка           : MP3
Продолжительность                        : 43 м.
Вид битрейта                             : Постоянный
Битрейт                                  : 128 Кбит/сек
Каналы                                   : 2 канала
Частота                                  : 48,0 КГц
Метод сжатия                             : С потерями
Размер потока                            : 39,4 Мбайт (10%)
Выравнивание                             : Соединение по промежуткам
Продолжительность промежутка             : 42  мс. (1,00 видеокадр)
Время предзагрузки промежутка            : 504  мс.

Аудио #2
Идентификатор                            : 2
Формат                                   : MPEG Audio
Версия формата                           : Version 1
Профиль формата                          : Layer 3
Идентификатор кодека                     : 55
Идентификатор кодека/Подсказка           : MP3
Продолжительность                        : 43 м.
Вид битрейта                             : Постоянный
Битрейт                                  : 128 Кбит/сек
Каналы                                   : 2 канала
Частота                                  : 48,0 КГц
Метод сжатия                             : С потерями
Размер потока                            : 39,4 Мбайт (10%)
Выравнивание                             : Соединение по промежуткам
Продолжительность промежутка             : 42  мс. (1,00 видеокадр)
Время предзагрузки промежутка            : 504  мс.
Библиотека кодирования                   : LAME3.99r
Настройки программы                      : -m s -V 4 -q 2 -lowpass 17 -b 128




Скачать Агенты.Щ.И.Т.Marvel's.Agents.of.S.H.I.E.L.D.(04х01-06.из.22).(Джесси.Бокко.и.др.).[2016.боевик.фантастика.драма.WEB-DLRip].[MVO.(LostFilm)]+[Eng].torrent без регистрации
Золото ЗОЛОТАЯ РАЗДАЧА! СКАЧАННОЕ НЕ ЗАСЧИТЫВАЕТСЯ! Золото
Дата: Зарегистрирован   [ Тип: внутренний ] Как тут cкачать?
MAGNET ссылка
MAGNET ссылка


Скачать .torrent

49 KB

Статус: проверено DHT
Скачан: торрент - 107 раз, раздача полностью - 4 раз
Размер: 2,41 GB
Оценка:  - (Голосов: 0)
Поблагодарили: 0
Поделиться ссылкой на эту раздачу с друзьями:
В контактеFacebookОдноклассникиTwitterLivejournalМой МирLiveinternet
 

 
Показать сообщения:    


Вы не можете начинать темы
Вы не можете отвечать на сообщения
Вы не можете редактировать свои сообщения
Вы не можете удалять свои сообщения
Вы не можете голосовать в опросах
Вы не можете прикреплять файлы к сообщениям
Вы можете скачивать файлы