Loading...
Error

Скачать Стрела / Arrow (05x01-06 из 23) (Дэвид Баррет, Дэвид Наттер) [2016, фантастика, боевик, драма, детектив, приключения , WEB-DL] [720p] [MVO (LostFilm)] торрент без регистрации

 
Статистика раздачи
Размер:  7,74 GB   |    Скачан:  24 раза
Сидов:  1  [  0 KB/s  ]  
 
Автор Сообщение

МихаНЕзатор

[] 

✦ Стрела / Arrow ✦


Информация о фильме:
❖ Страна: США
❖ Производство: Berlanti Productions, DC Entertainment, Warner Bros. Television
❖ Год выпуска: 2016
❖ Жанр: фантастика, боевик, драма, криминал, детектив, приключения
❖ Режиссер: Джон Беринг, Майкл Шульц, Глен Винтер

❖ В ролях: Стивен Амелл, Кэти Кэссиди, Колин Доннелл, Дэвид Рэмси, Уилла Холлэнд, Сюзанна Томпсон, Пол Блекторн, Колин Сэлмон, Эмили Бетт Рикардс, Энни Айлонзех, Себастьян Данн, Байрон Манн, Роджер Р. Кросс, Мэррет Грин, Ли Винсент, Джон Барроумен, Лесли Ивен

Описание фильма: После пяти лет, проведенных на одном из необитаемых островов юго-восточной Азии, молодой и дерзкий миллиардер Оливер Куин возвращается домой другим человеком. Все это время все считали его погибшим в результате кораблекрушения. Однако, он оказался единственным из членов экипажа затонувшего судна, кому не просто удалось выжить... Внешние или внутренние обстоятельства превратили его в совершенно другого человека, правда, Оливер отчего-то не спешит предъявить себя в новом качестве общественности.



Релиз: Чистый рип, без заставки и логотипа

❖ Перевод: Профессиональный (многоголосый закадровый) [LostFilm]
❖ Продолжительность: По ~ 00:43:00

Технические данные файла:
❖ Качество: WEB-DL 720p
❖ Формат: MKV
❖ Видео кодек: MPEG4 AVC
❖ Аудио кодек: AC3
❖ Видео: 1280x720 (16:9), MPEG-4 AVC, 23.976 fps, ~ ~ 4000 Kbps (0.181 bit/pixel)
❖ Аудио: 48 kHz, AC3, 2 ch, ~384 kbps

АНОНСЫ ПОПУЛЯРНЫХ РАЗДАЧ


Торрент обновлён, добавлена 6-я серия!

Эпизод 1. Legacy / Наследие
Эпизод 2. The Recruits / Новобранцы
Эпизод 3. A Matter of Trust / Вопрос доверия

General
Unique ID : 200661232157524912360572851529351777829 (0x96F5F293E17AC08790E538569EAD4E25)
Complete name : Arrow.S05E01.720p.WEB-DL.LostFilm.mkv
Format : Matroska
Format version : Version 4 / Version 2
File size : 1.41 GiB
Duration : 42mn 22s
Overall bit rate : 4 752 Kbps
Encoded date : UTC 2016-10-07 22:11:46
Writing application : mkvmerge v9.1.0 ('Little Earthquakes') 32bit
Writing library : libebml v1.3.3 + libmatroska v1.4.4
Attachements : small_cover.jpg / cover.jpg / cover_land.jpg / small_cover_land.jpg

Video
ID : 3
Format : AVC
Format/Info : Advanced Video Codec
Format profile : Baseline@L1.3
Format settings, CABAC : No
Format settings, ReFrames : 2 frames
Codec ID : V_MPEG4/ISO/AVC
Duration : 42mn 22s
Bit rate : 4 000 Kbps
Width : 1 280 pixels
Height : 720 pixels
Display aspect ratio : 16:9
Frame rate mode : Constant
Frame rate : 23.976 fps
Color space : YUV
Chroma subsampling : 4:2:0
Bit depth : 8 bits
Scan type : Progressive
Bits/(Pixel*Frame) : 0.181
Stream size : 1.15 GiB (82%)
Writing library : x264 core 148 r2579 73ae2d1
Encoding settings : cabac=0 / ref=2 / deblock=1:0:0 / analyse=0x1:0x111 / me=umh / subme=6 / psy=1 / psy_rd=1.00:0.00 / mixed_ref=1 / me_range=16 / chroma_me=1 / trellis=0 / 8x8dct=0 / cqm=0 / deadzone=21,11 / fast_pskip=1 / chroma_qp_offset=-2 / threads=12 / lookahead_threads=2 / sliced_threads=0 / nr=0 / decimate=1 / interlaced=0 / bluray_compat=0 / constrained_intra=0 / bframes=0 / weightp=0 / keyint=250 / keyint_min=23 / scenecut=40 / intra_refresh=0 / rc_lookahead=40 / rc=abr / mbtree=1 / bitrate=4000 / ratetol=1.0 / qcomp=0.60 / qpmin=0 / qpmax=69 / qpstep=4 / ip_ratio=1.40 / aq=1:1.00
Language : English
Default : Yes
Forced : No

Audio #1
ID : 1
Format : AC-3
Format/Info : Audio Coding 3
Mode extension : CM (complete main)
Format settings, Endianness : Big
Codec ID : A_AC3
Duration : 42mn 22s
Bit rate mode : Constant
Bit rate : 384 Kbps
Channel(s) : 2 channels
Channel positions : Front: L R
Sampling rate : 48.0 KHz
Compression mode : Lossy
Stream size : 116 MiB (8%)
Title : LostFilm
Language : Russian
Default : Yes
Forced : No

Audio #2
ID : 2
Format : AC-3
Format/Info : Audio Coding 3
Mode extension : CM (complete main)
Format settings, Endianness : Big
Codec ID : A_AC3
Duration : 42mn 22s
Bit rate mode : Constant
Bit rate : 384 Kbps
Channel(s) : 6 channels
Channel positions : Front: L C R, Side: L R, LFE
Sampling rate : 48.0 KHz
Compression mode : Lossy
Stream size : 116 MiB (8%)
Language : English
Default : No
Forced : No



Скачать Стрела.Arrow.(05x01-06.из.23).(Дэвид.Баррет.Дэвид.Наттер).[2016.фантастика.боевик.драма.детектив.приключения.WEB-DL].[720p].[MVO.(LostFilm)].torrent без регистрации
Золото ЗОЛОТАЯ РАЗДАЧА! СКАЧАННОЕ НЕ ЗАСЧИТЫВАЕТСЯ! Золото
Дата: Зарегистрирован   [ Тип: внутренний ] Как тут cкачать?
MAGNET ссылка
MAGNET ссылка


Скачать .torrent

20 KB

Статус: проверено DHT
Скачан: торрент - 24 раз, раздача полностью - 0 раз
Размер: 7,74 GB
Оценка:  - (Голосов: 0)
Поблагодарили: 2
Поделиться ссылкой на эту раздачу с друзьями:
В контактеFacebookОдноклассникиTwitterLivejournalМой МирLiveinternet
 

 
Показать сообщения:    


Вы не можете начинать темы
Вы не можете отвечать на сообщения
Вы не можете редактировать свои сообщения
Вы не можете удалять свои сообщения
Вы не можете голосовать в опросах
Вы не можете прикреплять файлы к сообщениям
Вы можете скачивать файлы