Loading...
Error

Скачать Глубокое погружение / The Rift (Хуан Пике Симон) [1990, ужасы, фантастика, боевик, приключения, BDRip-AVC] [AVO (Вартан Дохалов)] торрент без регистрации

 
Статистика раздачи
Размер:  2,19 GB   |    Скачан:  9 раз
Сидов:  1  [  0 KB/s  ]  
 
Автор Сообщение

Marsianka

[] 

Производство: США / Dister Group
Жанр: ужасы, фантастика, боевик, приключения

Режиссер: Хуан Пике Симон
Актеры: Джек Скалия, Р. Ли Эрми, Рэй Уайз, Дебора Эдейр, Джон Тоулс-Бей, Эли Пугет, Эмилио Линдер, Тони Исберт, Альваро Лабра, Луис Лоренсо

Описание:
После того, как затонула подводная лодка «Сирена-1», на её поиски отправляется другая подлодка под названием «Сирена-2». Снарядиться в экспедицию на ней уговаривают проектировщика первой субмарины, Вика Хэйеса. Экипаж с большим трудом погружается в подводную расщелину, слегка поцарапав корпус, и вскоре сталкивается с тем, что на огромной глубине существует жизнь, причём жизнь вовсе недружелюбная. Вслед за серией погружений обнаруживаются плотоядные морские водоросли, а ещё чуть позже — масса зловредных и охочих до человеческой плоти организмов, которые стали результатом генетических экспериментов над животными на «Сирене-1»…



Релиз от: K.E.N
Продолжительность: 01:23:03
Качество видео: BDRip-AVC
Перевод: Авторский (одноголосый, закадровый) | Вартан Дохалов
Субтитры: Отсутствуют

Видео: AVC, 1024x616, 23.976 fps, 3 384 Kbps (0.224 bit/pixel)
Аудио №1: 48.0 kHz, AC3 Dolby Digital, 2/0 (L,R) ch, ~192 kbps - русский
Аудио №2: 48.0 kHz, AC3 Dolby Digital, 2/0 (L,R) ch, ~192 kbps - английский
x264 [info]: profile High, level 4.1
x264 [info]: frame I:897 Avg QP:17.59 size: 85594 PSNR Mean Y:45.69 U:50.28 V:52.03 Avg:46.83 Global:46.31
x264 [info]: frame P:21422 Avg QP:19.95 size: 34417 PSNR Mean Y:43.92 U:49.59 V:51.55 Avg:45.19 Global:44.34
x264 [info]: frame B:97153 Avg QP:22.10 size: 13299 PSNR Mean Y:42.15 U:48.23 V:50.49 Avg:43.46 Global:42.66

Формат : Matroska
Версия формата : Version 2
Размер файла : 2,19 Гбайт
Продолжительность : 1 ч. 23 м.
Общий поток : 3767 Кбит/сек
Название фильма : Rip by K.E.N
Дата кодирования : UTC 2016-10-25 17:16:40
Программа кодирования : mkvmerge v5.3.0 ('I could have danced') built on Feb 9 2012 10:38:07
Библиотека кодирования : libebml v1.2.3 + libmatroska v1.3.0
Attachment : Yes

Видео
Идентификатор : 1
Формат : AVC
Формат/Информация : Advanced Video Codec
Профиль формата : High@L4.1
Параметр CABAC формата : Да
Параметр ReFrames формата : 11 кадров
Идентификатор кодека : V_MPEG4/ISO/AVC
Продолжительность : 1 ч. 23 м.
Битрейт : 3384 Кбит/сек
Ширина : 1024 пикселя
Высота : 616 пикселей
Соотношение сторон : 1,662
Режим частоты кадров : Постоянный
Частота кадров : 23,976 кадра/сек
Цветовое пространство : YUV
Субдискретизация насыщенности : 4:2:0
Битовая глубина : 8 бит
Тип развёртки : Прогрессивная
Бит/(Пиксели*Кадры) : 0.224
Размер потока : 1,92 Гбайт (88%)
Библиотека кодирования : x264 core 146 r2538 121396c
Настройки программы : cabac=1 / ref=11 / deblock=1:-3:-3 / analyse=0x3:0x133 / me=umh / subme=10 / psy=1 / psy_rd=1.00:0.10 / mixed_ref=1 / me_range=32 / chroma_me=1 / trellis=2 / 8x8dct=1 / cqm=0 / deadzone=21,11 / fast_pskip=0 / chroma_qp_offset=-3 / threads=12 / lookahead_threads=2 / sliced_threads=0 / nr=0 / decimate=0 / interlaced=0 / bluray_compat=0 / constrained_intra=0 / bframes=8 / b_pyramid=2 / b_adapt=2 / b_bias=0 / direct=3 / weightb=1 / open_gop=0 / weightp=2 / keyint=240 / keyint_min=23 / scenecut=40 / intra_refresh=0 / rc_lookahead=40 / rc=2pass / mbtree=0 / bitrate=3384 / ratetol=1.0 / qcomp=0.60 / qpmin=0 / qpmax=69 / qpstep=4 / cplxblur=20.0 / qblur=0.5 / vbv_maxrate=50000 / vbv_bufsize=62500 / nal_hrd=none / filler=0 / ip_ratio=1.40 / pb_ratio=1.30 / aq=1:0.80
Default : Да
Forced : Нет

Аудио #1
Идентификатор : 2
Формат : AC-3
Формат/Информация : Audio Coding 3
Расширение режима : CM (complete main)
Параметр Endianness формата : Big
Идентификатор кодека : A_AC3
Продолжительность : 1 ч. 23 м.
Вид битрейта : Постоянный
Битрейт : 192 Кбит/сек
Каналы : 2 канала
Расположение каналов : Front: L R
Частота : 48,0 КГц
Битовая глубина : 16 бит
Метод сжатия : С потерями
Размер потока : 114 Мбайт (5%)
Заголовок : Авторский В.Дохалов
Язык : Russian
Default : Да
Forced : Да

Аудио #2
Идентификатор : 3
Формат : AC-3
Формат/Информация : Audio Coding 3
Расширение режима : CM (complete main)
Параметр Endianness формата : Big
Идентификатор кодека : A_AC3
Продолжительность : 1 ч. 23 м.
Вид битрейта : Постоянный
Битрейт : 192 Кбит/сек
Каналы : 2 канала
Расположение каналов : Front: L R
Частота : 48,0 КГц
Битовая глубина : 16 бит
Метод сжатия : С потерями
Размер потока : 114 Мбайт (5%)
Язык : English
Default : Нет
Forced : Нет

Меню
00:00:00.000 : en:Chapter 1
00:04:31.605 : en:Chapter 2
00:09:19.601 : en:Chapter 3
00:16:48.257 : en:Chapter 4
00:20:09.875 : en:Chapter 5
00:27:19.888 : en:Chapter 6
00:33:27.506 : en:Chapter 7
00:36:16.007 : en:Chapter 8
00:41:52.677 : en:Chapter 9
00:49:51.030 : en:Chapter 10
00:57:54.179 : en:Chapter 11
01:04:39.876 : en:Chapter 12
01:11:27.492 : en:Chapter 13
01:20:31.744 : en:Chapter 14



Скачать Глубокое.погружение.The.Rift.(Хуан.Пике.Симон).[1990.ужасы.фантастика.боевик.приключения.BDRip-AVC].[AVO.(Вартан.Дохалов)].torrent без регистрации
Золото ЗОЛОТАЯ РАЗДАЧА! СКАЧАННОЕ НЕ ЗАСЧИТЫВАЕТСЯ! Золото
Дата: Зарегистрирован   [ Тип: внутренний ] Как тут cкачать?
MAGNET ссылка
MAGNET ссылка


Скачать .torrent

12 KB

Статус: проверено DHT
Скачан: торрент - 9 раз, раздача полностью - 17 раз
Размер: 2,19 GB
Оценка:  - (Голосов: 0)
Поблагодарили: 1
Поделиться ссылкой на эту раздачу с друзьями:
В контактеFacebookОдноклассникиTwitterLivejournalМой МирLiveinternet
 

 
Показать сообщения:    


Вы не можете начинать темы
Вы не можете отвечать на сообщения
Вы не можете редактировать свои сообщения
Вы не можете удалять свои сообщения
Вы не можете голосовать в опросах
Вы не можете прикреплять файлы к сообщениям
Вы можете скачивать файлы