Loading...
Error

Скачать Румпельштильцхен / Rumpelstiltskin (Марк Джонс) [1995, ужасы, фэнтези, DVDRip] [AVO (Андрей Гаврилов)] торрент без регистрации

 
Статистика раздачи
Размер:  1,46 GB   |    Скачан:  9 раз

Полного источника не было: 22 минуты

 
Автор Сообщение

Marsianka

[] 

Румпельштильцхен / Rumpelstiltskin

Страна: США
Производство: Transnational Entertainment, Republic Pictures (II), Prescott-Jones
Год выпуска: 1995
Жанр: ужасы, фэнтези
Продолжительность: 01:27:14

Режиссер: Марк Джонс
Авторы сценария: Марк Джонс, Джо Руби

В ролях: Ким Джонстон Ульрих, Томми Блэйз, Эллис Бисли, Макс Гроденчик, Вера Локвуд, Джей Пикетт, Шерман Огастас, Валери Уайлдмен

Описание: Похититель детей, отвратительный, злобный карлик-горбун Румпельштильцхен пролежал на дне морском, проклятый доброй волшебницей, с 15 века до наших дней. Его, превратившегося в зеленоватый камень, покупает в антикварном магазине вдова убитого бандитом полицейского, оставшаяся одна с малюткой-сыном.

Продавщица, похожая на ведьму, сказала, что камень выполняет желания. Румпельштильцхен выполняет желание женщины и оживляет ее мужа. Но выполнение желания сняло заклятие и карлик желает получить оплату — ее ребенка…



Перевод: Авторский (одноголосый, закадровый) | Андрей Гаврилов
Субтитры: нет
Качество: DVDRip
Формат: АVI
Видео кодек: XviD
Аудио кодек: АС3
Видео: 704x384 (1.85:1), 25.000 fps, XviD 65 ~1 902 kbps avg, 0.281 bit/pixel
Аудио №1: 48.0 kHz, AC3 Dolby Digital, 2/0 (L,R) ch, ~192 kbps | RUS
Аудио №2: 48.0 kHz, AC3 Dolby Digital, 2/0 (L,R) ch, ~192 kbps | ENG

Бюджет: $3 000 000
Дата премьеры (мир): 24 ноября 1995

ПРИМЕЧАНИЕ: версия Widescreen | широкоэкранная
General
Complete name : Румпельштильцхен [Rumpelstiltskin] (1995) [widescreen] [AVO +Eng] DVDRip.avi
Format : AVI
Format/Info : Audio Video Interleave
File size : 1.46 GiB
Duration : 1h 27mn
Overall bit rate : 2 391 Kbps
Writing application : VirtualDubModRus 1.5.10.2 (build 2542/release)
Writing library : VirtualDubMod build 2542/release

Video
ID : 0
Format : MPEG-4 Visual
Format profile : Advanced Simple@L5
Format settings, BVOP : 2
Format settings, QPel : No
Format settings, GMC : No warppoints
Format settings, Matrix : Custom
Codec ID : XVID
Codec ID/Hint : XviD
Duration : 1h 27mn
Bit rate : 1 902 Kbps
Width : 704 pixels
Height : 384 pixels
Display aspect ratio : 1.85:1
Frame rate : 25.000 fps
Color space : YUV
Chroma subsampling : 4:2:0
Bit depth : 8 bits
Scan type : Progressive
Compression mode : Lossy
Bits/(Pixel*Frame) : 0.281
Stream size : 1.16 GiB (80%)
Writing library : XviD 65

Audio #1
ID : 1
Format : AC-3
Format/Info : Audio Coding 3
Mode extension : CM (complete main)
Format settings, Endianness : Big
Codec ID : 2000
Duration : 1h 27mn
Bit rate mode : Constant
Bit rate : 192 Kbps
Channel(s) : 2 channels
Channel positions : Front: L R
Sampling rate : 48.0 KHz
Compression mode : Lossy
Delay relative to video : 20ms
Stream size : 120 MiB (8%)
Alignment : Split accross interleaves
Title : Андрей Гаврилов

Audio #2
ID : 2
Format : AC-3
Format/Info : Audio Coding 3
Mode extension : CM (complete main)
Format settings, Endianness : Big
Codec ID : 2000
Duration : 1h 27mn
Bit rate mode : Constant
Bit rate : 192 Kbps
Channel(s) : 2 channels
Channel positions : Front: L R
Sampling rate : 48.0 KHz
Compression mode : Lossy
Stream size : 120 MiB (8%)
Alignment : Split accross interleaves
Title : English



Скачать Румпельштильцхен.Rumpelstiltskin.(Марк.Джонс).[1995.ужасы.фэнтези.DVDRip].[AVO.(Андрей.Гаврилов)].torrent без регистрации
Золото ЗОЛОТАЯ РАЗДАЧА! СКАЧАННОЕ НЕ ЗАСЧИТЫВАЕТСЯ! Золото
Дата: Зарегистрирован   [ Тип: внутренний ] Как тут cкачать?
MAGNET ссылка
MAGNET ссылка


Скачать .torrent

15 KB

Статус: проверено DHT
Скачан: торрент - 9 раз, раздача полностью - 5 раз
Размер: 1,46 GB
Оценка:  - (Голосов: 0)
Поблагодарили: 1
Поделиться ссылкой на эту раздачу с друзьями:
В контактеFacebookОдноклассникиTwitterLivejournalМой МирLiveinternet
 

 
Показать сообщения:    


Вы не можете начинать темы
Вы не можете отвечать на сообщения
Вы не можете редактировать свои сообщения
Вы не можете удалять свои сообщения
Вы не можете голосовать в опросах
Вы не можете прикреплять файлы к сообщениям
Вы можете скачивать файлы