Loading...
Error

Скачать Кризис в шести сценах / Crisis in Six Scenes [S01] (2016) WEBRip] [1080p] 2x[MVO (Jaskier, NewStudio)]+[Eng]+[Sub Eng] торрент без регистрации

 
Статистика раздачи
Размер:  10,38 GB   |    Скачан:  5 раз
Сидов:  1  [  0 KB/s  ]  
 
Автор Сообщение

МихаНЕзатор

[] 

Кризис в шести сценах / Crisis in Six Scenes


Страна: США
Производство: Amazon Studios
Год выпуска: 2016
Сезон: 1
Жанр: комедия
Режиссер: Вуди Аллен
Автор сценария: Вуди Аллен

В ролях: Вуди Аллен, Майли Сайрус, Элейн Мей, Джон Магаро, Рэйчел Броснахэн, Джой Бехар, Мэри Бойер, Мэрилуиз Бёрк, Маргарет Гудман

Описание: События сериала развернутся в 60-е годы 20-го века. В центре сюжета — чинная американская семья, жизнь которой переворачивается с ног на голову с появлением неожиданной гостьи...

Дата премьеры (мир): 30 сентября 2016



Продолжительность: 6х ~00:23:30
Перевод: Профессиональный (многоголосый) | студия Jaskier + Профессиональный (многоголосый) | NewStudio
Субтитры: английские

Качество: WEBRip 1080p
Формат: МКV
Видео кодек: AVC
Аудио кодек: АС3
Видео: 1920x1080 (16:9), 23.976 fps, MPEG-4 AVC ~8 786 kbps avg
Аудио №1: 48.0 kHz, AC3 Dolby Digital, 2/0 (L,R) ch, ~192 kbps | студия Jaskier
Аудио №2: 48.0 kHz, AC3 Dolby Digital, 3/2 (L,C,R,l,r) + LFE ch, ~384 kbps | NewStudio
Аудио №3: 48.0 kHz, AC3 Dolby Digital, 3/2 (L,C,R,l,r) + LFE ch, ~640 kbps | ENG
Формат субтитров: UTF-8 Plain Text

АНОНСЫ ПОПУЛЯРНЫХ РАЗДАЧ
General
Unique ID : 232687122421312479497111958814973807730 (0xAF0DE8E06CBE98CFAC3E17B4BA80CC72)
Complete name : Crisis.in.Six.Scenes.S01E01.1080p.WEBRip.2хRus.Eng.mkv
Format : Matroska
Format version : Version 4 / Version 2
File size : 1.63 GiB
Duration : 23 min 18 s
Overall bit rate : 10.0 Mb/s
Encoded date : UTC 2016-10-21 22:56:13
Writing application : mkvmerge v7.5.0 ('Glass Culture') 64bit built on Jan 4 2015 16:48:44
Writing library : libebml v1.3.1 + libmatroska v1.4.2

Video
ID : 1
Format : AVC
Format/Info : Advanced Video Codec
Format profile : High@L4.1
Format settings, CABAC : Yes
Format settings, ReFrames : 4 frames
Codec ID : V_MPEG4/ISO/AVC
Duration : 23 min 18 s
Bit rate : 8 786 kb/s
Width : 1 920 pixels
Height : 1 080 pixels
Display aspect ratio : 16:9
Frame rate mode : Constant
Frame rate : 23.976 (24000/1001) FPS
Color space : YUV
Chroma subsampling : 4:2:0
Bit depth : 8 bits
Scan type : Progressive
Bits/(Pixel*Frame) : 0.177
Stream size : 1.43 GiB (88%)
Writing library : x264 core 148 r2721+7 72d53ab / tmod 162ad1b X86_64
Encoding settings : cabac=1 / ref=4 / deblock=1:-3:-3 / analyse=0x3:0x133 / me=umh / subme=11 / psy=1 / fade_compensate=0.00 / psy_rd=1.05:0.15 / mixed_ref=1 / me_range=48 / chroma_me=1 / trellis=2 / 8x8dct=1 / cqm=0 / deadzone=6,6 / fast_pskip=0 / chroma_qp_offset=-3 / threads=12 / lookahead_threads=3 / sliced_threads=0 / nr=0 / decimate=0 / interlaced=0 / bluray_compat=0 / constrained_intra=0 / fgo=0 / bframes=10 / b_pyramid=2 / b_adapt=2 / b_bias=0 / direct=3 / weightb=1 / open_gop=0 / weightp=2 / keyint=250 / keyint_min=23 / scenecut=40 / intra_refresh=0 / rc=crf / mbtree=0 / crf=17.0000 / qcomp=0.75 / qpmin=0:0:0 / qpmax=69:69:69 / qpstep=4 / ip_ratio=1.10 / pb_ratio=1.10 / aq=3:0.70 / aq-sensitivity=10.00 / aq-factor=1.00:1.00:1.00 / aq2=0 / aq3=0
Default : Yes
Forced : No

Audio #1
ID : 2
Format : AC-3
Format/Info : Audio Coding 3
Mode extension : CM (complete main)
Format settings, Endianness : Big
Codec ID : A_AC3
Duration : 23 min 18 s
Bit rate mode : Constant
Bit rate : 192 kb/s
Channel(s) : 2 channels
Channel positions : Front: L R
Sampling rate : 48.0 kHz
Frame rate : 31.250 FPS (1536 spf)
Compression mode : Lossy
Stream size : 32.0 MiB (2%)
Title : JASKiER
Language : Russian
Default : Yes
Forced : No

Audio #2
ID : 3
Format : AC-3
Format/Info : Audio Coding 3
Mode extension : CM (complete main)
Format settings, Endianness : Big
Codec ID : A_AC3
Duration : 23 min 18 s
Bit rate mode : Constant
Bit rate : 384 kb/s
Channel(s) : 6 channels
Channel positions : Front: L C R, Side: L R, LFE
Sampling rate : 48.0 kHz
Frame rate : 31.250 FPS (1536 spf)
Compression mode : Lossy
Stream size : 64.0 MiB (4%)
Title : NewStudio
Language : Russian
Default : No
Forced : No

Audio #3
ID : 4
Format : AC-3
Format/Info : Audio Coding 3
Mode extension : CM (complete main)
Format settings, Endianness : Big
Codec ID : A_AC3
Duration : 23 min 18 s
Bit rate mode : Constant
Bit rate : 640 kb/s
Channel(s) : 6 channels
Channel positions : Front: L C R, Side: L R, LFE
Sampling rate : 48.0 kHz
Frame rate : 31.250 FPS (1536 spf)
Compression mode : Lossy
Stream size : 107 MiB (6%)
Language : English
Default : No
Forced : No

Text
ID : 5
Format : UTF-8
Codec ID : S_TEXT/UTF8
Codec ID/Info : UTF-8 Plain Text
Duration : 20 min 32 s
Bit rate : 109 b/s
Count of elements : 485
Stream size : 16.4 KiB (0%)
Language : English
Default : No
Forced : No



Скачать Кризис.в.шести.сценах.Crisis.in.Six.Scenes.[S01].(2016).WEBRip].[1080p].2x[MVO.(Jaskier.NewStudio)]+[Eng]+[Sub.Eng].torrent без регистрации
Золото ЗОЛОТАЯ РАЗДАЧА! СКАЧАННОЕ НЕ ЗАСЧИТЫВАЕТСЯ! Золото
Дата: Зарегистрирован   [ Тип: внутренний ] Как тут cкачать?
MAGNET ссылка
MAGNET ссылка


Скачать .torrent

53 KB

Статус: проверено DHT
Скачан: торрент - 5 раз, раздача полностью - 9 раз
Размер: 10,38 GB
Оценка:  - (Голосов: 0)
Поблагодарили: 0
Поделиться ссылкой на эту раздачу с друзьями:
В контактеFacebookОдноклассникиTwitterLivejournalМой МирLiveinternet
 

 
Показать сообщения:    


Вы не можете начинать темы
Вы не можете отвечать на сообщения
Вы не можете редактировать свои сообщения
Вы не можете удалять свои сообщения
Вы не можете голосовать в опросах
Вы не можете прикреплять файлы к сообщениям
Вы можете скачивать файлы