Loading...
Error

Скачать Черное зеркало / Black Mirror (Сезон 03) (Отто Баферст, Эрос Лин, Брайан Уэлш, Оуэн Харрис, Карл Тиббеттс) [2016, фантастика, триллер, драма, WEBRip] [MVO] (Jaskier) торрент без регистрации

 
Статистика раздачи
Размер:  4,4 GB   |    Скачан:  16 раз
Сидов:  1  [  0 KB/s  ]  
 
Автор Сообщение

leon030982

[] 

Черное зеркало | Black Mirror


• Год выпуска: 2016
• Страна: Великобритания
• Жанр: триллер, драма,
• Продолжительность: ~ 00:59:00
• Перевод: Профессиональный (многоголосый закадровый) студия Jaskier
• Субтитры: отсутствуют

• Режиссёр: Отто Баферст, Эрос Лин, Брайан Уэлш, Оуэн Харрис, Карл Тиббеттс

• В ролях: Тоби Кеббелл, Джоди Уиттакер, Том Каллен, Дэниэл Калуя, Джессика Браун-Финдлэй, Рори Киннер, Лидия Уилсон, Руперт Эверетт, Джулия Дэвис, Баши, Брайони Нилан-Фрэнсис, Линдси Дункан, Дональд Самптер, Том Гудман-Хилл, Анна Уилсон-Джонс, Патрик Кеннеди, Аластер Маккензи, Четна Пандья

• Описание: «Чёрное зеркало» — британский фантастический телесериал, созданный по сценарию Чарли Брукера. Эпизоды не связаны между собой ни сюжетом, ни актёрами, ни временем или местом повествования. По словам Брукера, все сюжеты объединяет лишь сатира на тот образ жизни, что распространён в современном обществе. Сквозная тема — влияние информационных технологий на человеческие отношения.


• Качество: WEBRip
• Формат: AVI
• Видео: XviD, ~ 1400 Кбит/с, 704x368, 25 fps
• Аудио #1: MP3, 48 kHz, 2 ch, 128 kbps, CBR - Rus
• Аудио #2: MP3, 48 kHz, 2 ch, 128 kbps, CBR - Eng
General
Complete name : E:\INTERNET\Black Mirror (Season 03) Jaskier\Black.Mirror.S03E01.XviD.Jaskier.avi
Format : AVI
Format/Info : Audio Video Interleave
File size : 751 MiB
Duration : 1h 2mn
Overall bit rate : 1 674 Kbps
Writing application : VirtualDubMod 1.5.10.3 | www.virtualdub-fr.org || (build 2550/release)
Writing library : VirtualDubMod build 2550/release

Video
ID : 0
Format : MPEG-4 Visual
Format profile : Advanced Simple@L5
Format settings, BVOP : 2
Format settings, QPel : No
Format settings, GMC : No warppoints
Format settings, Matrix : Custom
Codec ID : XVID
Codec ID/Hint : XviD
Duration : 1h 2mn
Bit rate : 1 404 Kbps
Width : 704 pixels
Height : 368 pixels
Display aspect ratio : 1.913
Frame rate : 25.000 fps
Color space : YUV
Chroma subsampling : 4:2:0
Bit depth : 8 bits
Scan type : Progressive
Compression mode : Lossy
Bits/(Pixel*Frame) : 0.217
Stream size : 630 MiB (84%)
Writing library : XviD 73

Audio #1
ID : 1
Format : MPEG Audio
Format version : Version 1
Format profile : Layer 3
Mode : Joint stereo
Mode extension : MS Stereo
Codec ID : 55
Codec ID/Hint : MP3
Duration : 1h 2mn
Bit rate mode : Constant
Bit rate : 128 Kbps
Channel(s) : 2 channels
Sampling rate : 48.0 KHz
Compression mode : Lossy
Stream size : 57.4 MiB (8%)
Alignment : Aligned on interleaves
Interleave, duration : 40 ms (1.00 video frame)
Interleave, preload duration : 504 ms

Audio #2
ID : 2
Format : MPEG Audio
Format version : Version 1
Format profile : Layer 3
Mode : Joint stereo
Mode extension : MS Stereo
Codec ID : 55
Codec ID/Hint : MP3
Duration : 1h 2mn
Bit rate mode : Constant
Bit rate : 128 Kbps
Channel(s) : 2 channels
Sampling rate : 48.0 KHz
Compression mode : Lossy
Stream size : 57.4 MiB (8%)
Alignment : Aligned on interleaves
Interleave, duration : 40 ms (1.00 video frame)
Interleave, preload duration : 504 ms



Скачать Черное.зеркало.Black.Mirror.(Сезон.03).(Отто.Баферст.Эрос.Лин.Брайан.Уэлш.Оуэн.Харрис.Карл.Тиббеттс).[2016.фантастика.триллер.драма.WEBRip].[MVO].(Jaskier).torrent без регистрации
Золото ЗОЛОТАЯ РАЗДАЧА! СКАЧАННОЕ НЕ ЗАСЧИТЫВАЕТСЯ! Золото
Дата: Зарегистрирован   [ Тип: внутренний ] Как тут cкачать?
MAGNET ссылка
MAGNET ссылка


Скачать .torrent

23 KB

Статус: проверено DHT
Скачан: торрент - 16 раз, раздача полностью - 8 раз
Размер: 4,4 GB
Оценка:  - (Голосов: 0)
Поблагодарили: 0
Поделиться ссылкой на эту раздачу с друзьями:
В контактеFacebookОдноклассникиTwitterLivejournalМой МирLiveinternet
 

 
Показать сообщения:    


Вы не можете начинать темы
Вы не можете отвечать на сообщения
Вы не можете редактировать свои сообщения
Вы не можете удалять свои сообщения
Вы не можете голосовать в опросах
Вы не можете прикреплять файлы к сообщениям
Вы можете скачивать файлы