Loading...
Error

Скачать Изгоняющий дьявола / The Exorcist+Bonys(Сезон 1, Серия 1-10 из 10) (Майкл Нанкин, Джейсон Энслер) [2016 , Ужасы, триллер , WEB-DL 1080р] [MVO] [SDI Media , OMSKBIRD , NewStudiо , Kravec , BaibaKo , Kubik V Kube , English] + [Subs Eng] торрент без регистрации

Статистика раздачи
Размер:  48,14 GB   |    Скачан:  233 раза
Сидов:  1  [  0 KB/s  ]  
 
 
 
Автор Сообщение

Nikolai.Baranov

[] 



Изгоняющий дьявола / The Exorcist 2016 Сезон 1, Серия 1-10 из 10 +Изгоняющий дьявола (Экзорцист) / The Exorcist 1973 BDRip 1080p + Изгоняющий дьявола: Приквел / Dominion: Prequel to the Exorcis / 2005 BDRip 1080p Bonys




Год выпуска: 2016
Выпущено: США , 20th Century Fox Television, Morgan Creek Productions
Жанр: Ужасы, триллер
Продолжительность: 00:45:00
Сезон:1
Серия: 1-10
Количество серий в сезоне: 10

Озвучка 1: Профессиональный многоголосый - SDI Media по заказу Amedia Русский

Озвучка 2: Профессиональный многоголосый - OMSKBIRD Русский

Озвучка 3: Профессиональный многоголосый - NewStudio Русский

Озвучка 4: Профессиональный Двухголосый -Kubik V Kube Русский

Озвучка 5: Профессиональный многоголосый -Kravec Русский

Озвучка 6: Профессиональный многоголосый - BaibaKo Русский

Озвучка 7: Профессиональный многоголосый -English- Английский - Оригинал

Субтитры: : Английские

MDB

Режиссер: Майкл Нанкин, Джейсон Энслер, Руперт Уайатт

В ролях: Альфонсо Эррера, Бен Дэниелс, Джина Дэвис, Ханна Касулка, Брианна Хоуи, Алан Рак, Музам Маккар, Френсис Гуинан, Мелисса Расселл, Адам Биттерман


Одна из самых популярных тем в мировом кинематографе впервые воплощена в сериале. Снятый по мотивам знаменитого романа Уильяма Блэтти фильм “Изгоняющий дьявола” Уильяма Фридкина, признан чуть ли не самым страшным за всю историю. Одноименная телеверсия обещает быть не менее пугающей. Тем более, что вселять страх будут порциями, а не разом. И хотя источники и атмосфера те же, это не римейк, а новая история с неизвестными персонажами. В центре внимания два священнослужителя — каждый со своей точкой зрения, — занимающиеся случаем демонической одержимости.




Качество :WEB-DL 1080р
Формат: MKV
Видео кодек: H264
Видео: 5174Кбит/сек,1920х1080(16.9),в 23.976кадр/сек,AVC (High@L4)(CABAC/4 Ref Frames)
Аудио Кодек:AC3
Аудио 1: AC3, 384 Kbps, 48.0 KHz, 6 ch - - SDI Media
Аудио 2:AC3, 384 Kbps, 48.0 KHz, 6 ch - - OMSKBIRD
Аудио 3: AC3, 384 Kbps, 48.0 KHz, 6 ch - - NewStudio
Аудио 4:AC3, 384 Kbps, 48.0 KHz, 6 ch - - Kubik V Kube
Аудио 5: AC3, 384 Kbps, 48.0 KHz, 6 ch - - - - Kravec
Аудио 6: AC3, 384 Kbps, 48.0 KHz, 6 ch - - - - BaibaKo
Аудио 7: AC3, 640 Kbps, 48.0 KHz, 6 ch - - English- Английский - Оригинал


Звуковая дорожка сделана путем наложения чистого голоса озвучивателей на центральный канал оригинальной дорожки. Качество идентично звуковой дорожке.




Изгоняющий дьявола: Приквел / Dominion: Prequel to the Exorcis / 2005 BDRip 1080p Bonys


1.
2. Глава Вторая: Лёгок на помине / Chapter Two: Lupus in Fabula
3. Глава Третья: Впустите Их / Chapter Three: Let 'Em In
4. Глава Четыре: Праздник, который всегда с тобой / Chapter Four: The Moveable Feast
5. Пятая: Ценою наивысшей ошибки / Chapter Five: Through My Most Grievous Fault
6. Глава Шестая: Сын утренней зари / Chapter Six: Star of the Morning
7. Глава Седьмая: Отец Лжи / Chapter Seven: Father of Lies
8. Глава Восьмая: Скорбящие / Chapter Eight: The Griefbearers
9. Глава Девятая: 162 / Chapter Nine: 162
10. Глава Десятая: Три комнаты / Chapter Ten: Three Rooms



Общее
Уникальный идентификатор : 184474087203365692089127189314055483753 (0x8AC86AB6BCB0AD5A8056BB0F1AC4B169)
Полное имя : C:\МОЙ ДОСУГ\ИЗГОНЯЮЩИЙ ДЬЯВОЛА\THE_EXORCIST_2016_S01_[SDI _Media_OMSKBIRD_NewStudiо_Kravec_BaibaKo_Kubik V Kube]_DD5.1_N.B_WEB-DL_1080_Rus_Eng\The_Exorcist_S01E01_DD5.1_N.B_WEB-DL_1080_6xRus_Eng.mkv
Формат : Matroska
Версия формата : Version 4 / Version 2
Размер файла : 2,67 Гбайт
Продолжительность : 47 м. 6 с.
Общий поток : 8122 Кбит/сек
Название фильма : The_Exorcist_S01E01_DD5.1_N.B_WEB-DL_1080_6xRus_Eng
Дата кодирования : UTC 2016-11-20 06:13:38
Программа кодирования : mkvmerge v9.5.0 ('Quiet Fire') 64bit
Библиотека кодирования : libebml v1.3.4 + libmatroska v1.4.5

Видео
Идентификатор : 1
Формат : AVC
Формат/Информация : Advanced Video Codec
Профиль формата : High@L4
Параметр CABAC формата : Да
Параметр ReFrames формата : 4 кадра
Идентификатор кодека : V_MPEG4/ISO/AVC
Продолжительность : 47 м. 6 с.
Битрейт : 5174 Кбит/сек
Ширина : 1920 пикселей
Высота : 1080 пикселей
Соотношение сторон : 16:9
Режим частоты кадров : Постоянный
Частота кадров : 23,976 (23976/1000) кадра/сек
Цветовое пространство : YUV
Субдискретизация насыщенности : 4:2:0
Битовая глубина : 8 бит
Тип развёртки : Прогрессивная
Бит/(Пиксели*Кадры) : 0.104
Размер потока : 1,70 Гбайт (64%)
Заголовок : The_Exorcist_S01E01_DD5.1_N.B_WEB-DL_1080_6xRus_Eng
Язык : English
Default : Да
Forced : Нет
Цветовой диапазон : Limited
Основные цвета : BT.709
Характеристики трансфера : BT.709
Коэффициенты матрицы : BT.709

Аудио #1
Идентификатор : 3
Формат : AC-3
Формат/Информация : Audio Coding 3
Расширение режима : CM (complete main)
Параметр Endianness формата : Big
Идентификатор кодека : A_AC3
Продолжительность : 47 м. 6 с.
Вид битрейта : Постоянный
Битрейт : 384 Кбит/сек
Каналы : 6 каналов
Расположение каналов : Front: L C R, Side: L R, LFE
Частота : 48,0 КГц
Частота кадров : 31,250 кадров/сек (1536 spf)
Битовая глубина : 16 бит
Метод сжатия : С потерями
Размер потока : 129 Мбайт (5%)
Заголовок : MVO SDI Media @DD5.1 AC3, 384 Kbps, 48.0 KHz, 6 ch
Язык : Russian
Default : Да
Forced : Нет

Аудио #2
Идентификатор : 4
Формат : AC-3
Формат/Информация : Audio Coding 3
Расширение режима : CM (complete main)
Параметр Endianness формата : Big
Идентификатор кодека : A_AC3
Продолжительность : 47 м. 6 с.
Вид битрейта : Постоянный
Битрейт : 384 Кбит/сек
Каналы : 6 каналов
Расположение каналов : Front: L C R, Side: L R, LFE
Частота : 48,0 КГц
Частота кадров : 31,250 кадров/сек (1536 spf)
Битовая глубина : 16 бит
Метод сжатия : С потерями
Размер потока : 129 Мбайт (5%)
Заголовок : MVO OMSKBIRD @DD5.1 AC3, 384 Kbps, 48.0 KHz, 6 ch
Язык : Russian
Default : Нет
Forced : Нет

Аудио #3
Идентификатор : 5
Формат : AC-3
Формат/Информация : Audio Coding 3
Расширение режима : CM (complete main)
Параметр Endianness формата : Big
Идентификатор кодека : A_AC3
Продолжительность : 47 м. 6 с.
Вид битрейта : Постоянный
Битрейт : 384 Кбит/сек
Каналы : 6 каналов
Расположение каналов : Front: L C R, Side: L R, LFE
Частота : 48,0 КГц
Частота кадров : 31,250 кадров/сек (1536 spf)
Битовая глубина : 16 бит
Метод сжатия : С потерями
Размер потока : 129 Мбайт (5%)
Заголовок : MVO NewStudio @DD5.1 AC3, 384 Kbps, 48.0 KHz, 6 ch
Язык : Russian
Default : Нет
Forced : Нет

Аудио #4
Идентификатор : 6
Формат : AC-3
Формат/Информация : Audio Coding 3
Расширение режима : CM (complete main)
Параметр Endianness формата : Big
Идентификатор кодека : A_AC3
Продолжительность : 47 м. 6 с.
Вид битрейта : Постоянный
Битрейт : 384 Кбит/сек
Каналы : 6 каналов
Расположение каналов : Front: L C R, Side: L R, LFE
Частота : 48,0 КГц
Частота кадров : 31,250 кадров/сек (1536 spf)
Битовая глубина : 16 бит
Метод сжатия : С потерями
Размер потока : 129 Мбайт (5%)
Заголовок : MVO Kravec @DD5.1 AC3, 384 Kbps, 48.0 KHz, 6 ch
Язык : Russian
Default : Нет
Forced : Нет

Аудио #5
Идентификатор : 7
Формат : AC-3
Формат/Информация : Audio Coding 3
Расширение режима : CM (complete main)
Параметр Endianness формата : Big
Идентификатор кодека : A_AC3
Продолжительность : 47 м. 6 с.
Вид битрейта : Постоянный
Битрейт : 384 Кбит/сек
Каналы : 6 каналов
Расположение каналов : Front: L C R, Side: L R, LFE
Частота : 48,0 КГц
Частота кадров : 31,250 кадров/сек (1536 spf)
Битовая глубина : 16 бит
Метод сжатия : С потерями
Размер потока : 129 Мбайт (5%)
Заголовок : MVO BaibaKo @DD5.1 AC3, 384 Kbps, 48.0 KHz, 6 ch
Язык : Russian
Default : Нет
Forced : Нет

Аудио #6
Идентификатор : 8
Формат : AC-3
Формат/Информация : Audio Coding 3
Расширение режима : CM (complete main)
Параметр Endianness формата : Big
Идентификатор кодека : A_AC3
Продолжительность : 47 м. 6 с.
Вид битрейта : Постоянный
Битрейт : 384 Кбит/сек
Каналы : 6 каналов
Расположение каналов : Front: L C R, Side: L R, LFE
Частота : 48,0 КГц
Частота кадров : 31,250 кадров/сек (1536 spf)
Битовая глубина : 16 бит
Метод сжатия : С потерями
Размер потока : 129 Мбайт (5%)
Заголовок : MVO Kubik V Kube @DD5.1 AC3, 384 Kbps, 48.0 KHz, 6 ch
Язык : Russian
Default : Нет
Forced : Нет

Аудио #7
Идентификатор : 9
Формат : AC-3
Формат/Информация : Audio Coding 3
Расширение режима : CM (complete main)
Параметр Endianness формата : Big
Идентификатор кодека : A_AC3
Продолжительность : 47 м. 6 с.
Вид битрейта : Постоянный
Битрейт : 640 Кбит/сек
Каналы : 6 каналов
Расположение каналов : Front: L C R, Side: L R, LFE
Частота : 48,0 КГц
Частота кадров : 31,250 кадров/сек (1536 spf)
Битовая глубина : 16 бит
Метод сжатия : С потерями
Размер потока : 216 Мбайт (8%)
Заголовок : Original@DD5.1 AC3 ,640 Kbps, 48.0 KHz, 6 ch
Язык : English
Default : Нет
Forced : Нет

Текст
Идентификатор : 2
Формат : UTF-8
Идентификатор кодека : S_TEXT/UTF8
Идентификатор кодека/Информация : UTF-8 Plain Text
Продолжительность : 43 м. 31 с.
Битрейт : 46 бит/сек
Count of elements : 590
Размер потока : 14,9 Кбайт (0%)
Заголовок : Original
Язык : English
Default : Нет
Forced : Нет









Год выпуска: 2005
Выпущено: США , Morgan Creek Productions
Жанр: Ужасы, триллер
Продолжительность: 01:55:55

Озвучка 1: Профессиональный многоголосый - НТВ Русский

Озвучка 2: Профессиональный многоголосый -English- Английский - Оригинал

Субтитры: : Английские

MDB

Режиссер: Пол Шредер

В ролях: Стеллан Скарсгард, Гэбриел Манн, Клара Беллар, Билли Кроуфорд, Ральф Браун, Исраель Адурамо, Эндрю Френч, Энтони Камерлинг, Джулиан Уэдэм


Спустя три года после окончания Второй Мировой Войны, святой отец Ланкестер Мэррин оказывается на археологических раскопках, развернувшихся на территориях в восточной Африке, принадлежащих Британии. Здесь возглавляемая им группа исследователей обнаруживает Византийскую церковь, на удивление очень хорошо сохранившуюся несмотря на прошедшие века. В глубине церкви Мэррин и его соратники находят древний склеп сохранивший в себе следы проводимых здесь некогда сатанинских ритуалов и жестоких жертвоприношений. Местные жители пытаются убедить археологов в том, что вскрыв церковь, они освободили ужасного демона. В это верит только молодой священник отец Фрэнсис, который подозревает, что вышедший на волю мстительный дух вселился в маленького мальчика. Вскоре это становится очевидным и для Мэррина, который решает во чтобы то ни стало изгнать зло из ребенка, для чего ему приходится снова обратиться к Богу, веру в которого он утерял после пережитых им ужасов Второй Мировой Войны…

Качество :BDRip 1080p
Формат: MKV
Видео кодек: H264
Видео: 11,6Мбит/сек,1920х1080(16.9),в 23.976кадр/сек,AVC(High@L4,1)(CABAC/4 Ref Frames)
Аудио Кодек:AC3

Аудио #1:AC3 , 192 Kbps, 48.0 KHz, 6 ch- -НТВ -Русский


Аудио #2: AC3, 640 Kbps, 48.0 KHz,6 ch - - English-Английский -Оригинал


Общее
Уникальный идентификатор : 200587464228724369242418750583024511016 (0x96E7BD89B826C02C90DCE6C5DBD1E828)
Полное имя : C:\ПИРАТИЯ(PIRATIYA)\ИЗГОНЯЮЩИЙ ДЬЯВОЛА(The Exorcist)\THE_EXORCIST_2016_S01_[SDI _Media_OMSKBIRD_NewStudiо_Kravec_BaibaKo_Kubik V Kube]_DD5.1_N.B_WEB-DL_1080_Rus_Eng+Bonys\Prequel_to_the_Exorcist_2005_Rus_NTV_Eng_H264_DD5.1_N.B_BDRip_1080p.mkv
Формат : Matroska
Версия формата : Version 4 / Version 2
Размер файла : 10,0 Гбайт
Продолжительность : 1 ч. 55 м.
Общий поток : 12,4 Мбит/сек
Название фильма : Prequel_to_the_Exorcist_2005_Rus_NTV_Eng_H264_DD5.1_N.B_BDRip_1080p
Дата кодирования : UTC 2016-11-26 16:19:51
Программа кодирования : mkvmerge v9.5.0 ('Quiet Fire') 64bit
Библиотека кодирования : libebml v1.3.4 + libmatroska v1.4.5

Видео
Идентификатор : 1
Формат : AVC
Формат/Информация : Advanced Video Codec
Профиль формата : High@L4.1
Параметр CABAC формата : Да
Параметр ReFrames формата : 4 кадра
Идентификатор кодека : V_MPEG4/ISO/AVC
Продолжительность : 1 ч. 55 м.
Битрейт : 11,6 Мбит/сек
Ширина : 1920 пикселей
Высота : 1080 пикселей
Соотношение сторон : 16:9
Режим частоты кадров : Постоянный
Частота кадров : 23,976 (24000/1001) кадра/сек
Цветовое пространство : YUV
Субдискретизация насыщенности : 4:2:0
Битовая глубина : 8 бит
Тип развёртки : Прогрессивная
Бит/(Пиксели*Кадры) : 0.232
Размер потока : 9,35 Гбайт (93%)
Заголовок : Prequel_to_the_Exorcist_2005_Rus_NTV_Eng_H264_DD5.1_N.B_BDRip_1080p
Библиотека кодирования : x264 core 148 r2638 7599210
Настройки программы : cabac=1 / ref=4 / deblock=1:-3:-3 / analyse=0x3:0x113 / me=umh / subme=11 / psy=1 / psy_rd=1.00:0.10 / mixed_ref=1 / me_range=48 / chroma_me=1 / trellis=2 / 8x8dct=1 / cqm=0 / deadzone=21,11 / fast_pskip=0 / chroma_qp_offset=-3 / threads=12 / lookahead_threads=3 / sliced_threads=0 / nr=0 / decimate=0 / interlaced=0 / bluray_compat=0 / constrained_intra=0 / bframes=14 / b_pyramid=2 / b_adapt=2 / b_bias=0 / direct=3 / weightb=1 / open_gop=0 / weightp=2 / keyint=240 / keyint_min=24 / scenecut=40 / intra_refresh=0 / rc_lookahead=40 / rc=2pass / mbtree=0 / bitrate=11555 / ratetol=1.0 / qcomp=0.60 / qpmin=0 / qpmax=69 / qpstep=4 / cplxblur=20.0 / qblur=0.5 / vbv_maxrate=62500 / vbv_bufsize=78125 / nal_hrd=none / filler=0 / ip_ratio=1.40 / pb_ratio=1.30 / aq=1:1.00
Язык : Russian
Default : Да
Forced : Нет

Аудио #1
Идентификатор : 3
Формат : AC-3
Формат/Информация : Audio Coding 3
Расширение режима : CM (complete main)
Параметр Endianness формата : Big
Идентификатор кодека : A_AC3
Продолжительность : 1 ч. 55 м.
Вид битрейта : Постоянный
Битрейт : 192 Кбит/сек
Каналы : 6 каналов
Расположение каналов : Front: L C R, Side: L R, LFE
Частота : 48,0 КГц
Частота кадров : 31,250 кадров/сек (1536 spf)
Битовая глубина : 16 бит
Метод сжатия : С потерями
Размер потока : 159 Мбайт (2%)
Заголовок : MVO Russian NTV @DD5.1 AC3, 192 Kbps, 48.0 KHz, 6 ch
Язык : Russian
Default : Да
Forced : Нет

Аудио #2
Идентификатор : 4
Формат : AC-3
Формат/Информация : Audio Coding 3
Расширение режима : CM (complete main)
Параметр Endianness формата : Big
Идентификатор кодека : A_AC3
Продолжительность : 1 ч. 55 м.
Вид битрейта : Постоянный
Битрейт : 640 Кбит/сек
Каналы : 6 каналов
Расположение каналов : Front: L C R, Side: L R, LFE
Частота : 48,0 КГц
Частота кадров : 31,250 кадров/сек (1536 spf)
Битовая глубина : 16 бит
Метод сжатия : С потерями
Размер потока : 531 Мбайт (5%)
Заголовок : Original@DD5.1 AC3 ,640 Kbps, 48.0 KHz, 6 ch
Язык : English
Default : Нет
Forced : Нет

Текст
Идентификатор : 2
Формат : UTF-8
Идентификатор кодека : S_TEXT/UTF8
Идентификатор кодека/Информация : UTF-8 Plain Text
Продолжительность : 1 ч. 54 м.
Битрейт : 42 бит/сек
Count of elements : 1159
Размер потока : 35,8 Кбайт (0%)
Язык : English
Default : Да
Forced : Нет

Меню
00:00:00.000 : en:
00:05:27.827 : en:
00:09:27.024 : en:
00:12:38.257 : en:
00:16:59.309 : en:
00:23:36.039 : en:
00:26:59.409 : en:
00:32:08.009 : en:
00:36:10.543 : en:
00:38:28.723 : en:
00:40:18.874 : en:
00:44:27.665 : en:
00:46:22.446 : en:
00:49:30.759 : en:
00:55:00.714 : en:
00:59:15.510 : en:
01:01:59.549 : en:
01:06:32.363 : en:
01:11:55.227 : en:
01:15:00.871 : en:
01:23:19.828 : en:
01:27:08.139 : en:
01:32:43.516 : en:
01:34:38.381 : en:
01:40:24.184 : en:
01:43:09.057 : en:
01:47:54.968 : en:
01:51:39.859 : en:
01:55:53.071 : en:












Год выпуска: 1973
Выпущено: США , Warner Bros. Pictures, Hoya Productions
Жанр: Ужасы, триллер
Продолжительность: 0 02:12:21

Озвучка 1: -[Дублированный] Русский

Озвучка 2: Профессиональный многоголосый -[НТВ+] Русский

Озвучка 3: [Авторский одноголосый] - Юрий Живов - Русский

Озвучка 4: [Авторский одноголосый] - Алексей Михалёв - Русский

Озвучка 5: Профессиональный многоголосый -English- Английский - Оригинал

Озвучка 6: [Комментарий] -English- Английский - Оригинал

Субтитры: :Русские , Английские

MDB

Режиссер: Уильям Фридкин

В ролях: Эллен Бёрстин, Макс фон Сюдов, Джейсон Миллер, Ли Дж. Кобб, Китти Уинн, Джек МакГоурэн, Линда Блэр, Реверенд Уильям О`Мэлли, Бартон Хейман, Питер Мастерсон


В семью известной актрисы приходит беда — ее несовершеннолетняя дочь начинает вести себя неадекватным образом. Мать полагает, что это следствие ее личной трагедии, врачи подозревают психическое заболевание и не в силах поставить диагноз. Специально приглашенный священник подозревает, что девочка одержима дьяволом. Однако в современном атеистическом мире никто уже не верит в то, что человек может быть одержим нечистым духом, даже сама церковь. Тем не менее, из Азии Ватиканом вызывается последний оставшийся в живых экзорсист («изгоняющий дьявола») отец Ланкастер Меррин, который приезжает, не зная о том, что идет навстречу своей смерти…
Качество :BDRip 1080p
Формат: MKV
Видео кодек: H264
Видео: 11,2Мбит/сек,1920х1080(16.9),в 23.976кадр/сек,AVC(High@L4,1)(CABAC/4 Ref Frames)
Аудио Кодек:AC3

Аудио #1:AC3 , 640 Kbps, 48.0 KHz, 6 ch- -Дублированный -Русский

Аудио #2:AC3 , 384 Kbps, 48.0 KHz, 6 ch- -НТВ+ -Русский

Аудио #3:AC3 , 384 Kbps, 48.0 KHz, 6 ch- - Юрий Живов -Русский

Аудио #4:AC3 , 384 Kbps, 48.0 KHz, 6 ch- - Алексей Михалёв -Русский

Аудио #5: AC3, 640 Kbps, 48.0 KHz,6 ch - - English-Английский -Оригинал

Аудио #6: AC3, 384 Kbps, 48.0 KHz,6 ch -Комментарий - English-Английский -Оригинал


Общее
Уникальный идентификатор : 191996077872607703199918860534854855466 (0x9071197CA1AA71479FACD10379422B2A)
Полное имя : C:\ПИРАТИЯ(PIRATIYA)\ИЗГОНЯЮЩИЙ ДЬЯВОЛА(The Exorcist)\THE_EXORCIST_2016_S01_[SDI _Media_OMSKBIRD_NewStudiо_Kravec_BaibaKo_Kubik V Kube]_DD5.1_N.B_WEB-DL_1080_Rus_Eng+Bonys\The_Exorcist_1973_4xRus_DUB_Eng_H264_DD5.1_N.B_BDRip_1080p.mkv
Формат : Matroska
Версия формата : Version 4 / Version 2
Размер файла : 13,0 Гбайт
Продолжительность : 2 ч. 12 м.
Общий поток : 14,0 Мбит/сек
Название фильма : The_Exorcist_1973_4xRus_DUB_Eng_H264_DD5.1_N.B_BDRip_1080p
Дата кодирования : UTC 2016-12-23 08:57:09
Программа кодирования : mkvmerge v9.6.0 ('Slave To Your Mind') 64bit
Библиотека кодирования : libebml v1.3.4 + libmatroska v1.4.5

Видео
Идентификатор : 1
Формат : AVC
Формат/Информация : Advanced Video Codec
Профиль формата : High@L4.1
Параметр CABAC формата : Да
Параметр ReFrames формата : 4 кадра
Идентификатор кодека : V_MPEG4/ISO/AVC
Продолжительность : 2 ч. 12 м.
Битрейт : 11,2 Мбит/сек
Ширина : 1920 пикселей
Высота : 1080 пикселей
Соотношение сторон : 16:9
Режим частоты кадров : Постоянный
Частота кадров : 23,976 (24000/1001) кадра/сек
Цветовое пространство : YUV
Субдискретизация насыщенности : 4:2:0
Битовая глубина : 8 бит
Тип развёртки : Прогрессивная
Бит/(Пиксели*Кадры) : 0.225
Размер потока : 10,4 Гбайт (80%)
Заголовок : The_Exorcist_1973_4xRus_DUB_Eng_H264_DD5.1_N.B_BDRip_1080p
Библиотека кодирования : x264 core 125 r2200 999b753
Настройки программы : cabac=1 / ref=4 / deblock=1:-1:-1 / analyse=0x3:0x113 / me=umh / subme=9 / psy=1 / psy_rd=1.00:0.15 / mixed_ref=1 / me_range=24 / chroma_me=1 / trellis=2 / 8x8dct=1 / cqm=0 / deadzone=21,11 / fast_pskip=1 / chroma_qp_offset=-3 / threads=6 / lookahead_threads=1 / sliced_threads=0 / nr=0 / decimate=1 / interlaced=0 / bluray_compat=0 / constrained_intra=0 / bframes=6 / b_pyramid=2 / b_adapt=2 / b_bias=0 / direct=1 / weightb=1 / open_gop=0 / weightp=2 / keyint=230 / keyint_min=23 / scenecut=40 / intra_refresh=0 / rc=crf / mbtree=0 / crf=22.0 / qcomp=0.60 / qpmin=0 / qpmax=69 / qpstep=4 / ip_ratio=1.40 / pb_ratio=1.30 / aq=1:1.00
Язык : Russian
Default : Да
Forced : Нет

Аудио #1
Идентификатор : 5
Формат : AC-3
Формат/Информация : Audio Coding 3
Расширение режима : CM (complete main)
Параметр Endianness формата : Big
Идентификатор кодека : A_AC3
Продолжительность : 2 ч. 12 м.
Вид битрейта : Постоянный
Битрейт : 640 Кбит/сек
Каналы : 6 каналов
Расположение каналов : Front: L C R, Side: L R, LFE
Частота : 48,0 КГц
Частота кадров : 31,250 кадров/сек (1536 spf)
Битовая глубина : 16 бит
Метод сжатия : С потерями
Размер потока : 606 Мбайт (5%)
Заголовок : DUB @DD5.1 AC3 ,640 Kbps, 48.0 KHz, 6 ch
Язык : Russian
Default : Да
Forced : Нет

Аудио #2
Идентификатор : 6
Формат : AC-3
Формат/Информация : Audio Coding 3
Расширение режима : CM (complete main)
Параметр Endianness формата : Big
Идентификатор кодека : A_AC3
Продолжительность : 2 ч. 12 м.
Вид битрейта : Постоянный
Битрейт : 384 Кбит/сек
Каналы : 6 каналов
Расположение каналов : Front: L C R, Side: L R, LFE
Частота : 48,0 КГц
Частота кадров : 31,250 кадров/сек (1536 spf)
Битовая глубина : 16 бит
Метод сжатия : С потерями
Размер потока : 364 Мбайт (3%)
Заголовок : Rus MVO NTV+ @DD5.1 AC3, 384 Kbps, 48.0 KHz, 6 ch
Язык : Russian
Default : Нет
Forced : Нет

Аудио #3
Идентификатор : 7
Формат : AC-3
Формат/Информация : Audio Coding 3
Расширение режима : CM (complete main)
Параметр Endianness формата : Big
Идентификатор кодека : A_AC3
Продолжительность : 2 ч. 12 м.
Вид битрейта : Постоянный
Битрейт : 384 Кбит/сек
Каналы : 6 каналов
Расположение каналов : Front: L C R, Side: L R, LFE
Частота : 48,0 КГц
Частота кадров : 31,250 кадров/сек (1536 spf)
Битовая глубина : 16 бит
Метод сжатия : С потерями
Размер потока : 364 Мбайт (3%)
Заголовок : Rus AVO (Юрий Живов) @DD5.1 AC3, 384 Kbps, 48.0 KHz, 6 ch
Язык : Russian
Default : Нет
Forced : Нет

Аудио #4
Идентификатор : 8
Формат : AC-3
Формат/Информация : Audio Coding 3
Расширение режима : CM (complete main)
Параметр Endianness формата : Big
Идентификатор кодека : A_AC3
Продолжительность : 2 ч. 12 м.
Вид битрейта : Постоянный
Битрейт : 384 Кбит/сек
Каналы : 6 каналов
Расположение каналов : Front: L C R, Side: L R, LFE
Частота : 48,0 КГц
Частота кадров : 31,250 кадров/сек (1536 spf)
Битовая глубина : 16 бит
Метод сжатия : С потерями
Размер потока : 364 Мбайт (3%)
Заголовок : Rus AVO (Алексей Михалёв) @DD5.1 AC3, 384 Kbps, 48.0 KHz, 6 ch
Язык : Russian
Default : Нет
Forced : Нет

Аудио #5
Идентификатор : 9
Формат : AC-3
Формат/Информация : Audio Coding 3
Расширение режима : CM (complete main)
Параметр Endianness формата : Big
Идентификатор кодека : A_AC3
Продолжительность : 2 ч. 12 м.
Вид битрейта : Постоянный
Битрейт : 640 Кбит/сек
Каналы : 6 каналов
Расположение каналов : Front: L C R, Side: L R, LFE
Частота : 48,0 КГц
Частота кадров : 31,250 кадров/сек (1536 spf)
Битовая глубина : 16 бит
Метод сжатия : С потерями
Размер потока : 606 Мбайт (5%)
Заголовок : Original@DD5.1 AC3 ,640 Kbps, 48.0 KHz, 6 ch
Язык : English
Default : Нет
Forced : Нет

Аудио #6
Идентификатор : 10
Формат : AC-3
Формат/Информация : Audio Coding 3
Расширение режима : CM (complete main)
Параметр Endianness формата : Big
Идентификатор кодека : A_AC3
Продолжительность : 2 ч. 12 м.
Вид битрейта : Постоянный
Битрейт : 384 Кбит/сек
Каналы : 6 каналов
Расположение каналов : Front: L C R, Side: L R, LFE
Частота : 48,0 КГц
Частота кадров : 31,250 кадров/сек (1536 spf)
Битовая глубина : 16 бит
Метод сжатия : С потерями
Размер потока : 364 Мбайт (3%)
Заголовок : Commentary Original@DD5.1 AC3 ,640 Kbps, 48.0 KHz, 6 ch
Язык : English
Default : Нет
Forced : Нет

Текст #1
Идентификатор : 2
Формат : UTF-8
Идентификатор кодека : S_TEXT/UTF8
Идентификатор кодека/Информация : UTF-8 Plain Text
Продолжительность : 1 ч. 35 м.
Битрейт : 7 бит/сек
Count of elements : 111
Размер потока : 4,93 Кбайт (0%)
Заголовок : Rus Forsed
Язык : Russian
Default : Да
Forced : Нет

Текст #2
Идентификатор : 3
Формат : UTF-8
Идентификатор кодека : S_TEXT/UTF8
Идентификатор кодека/Информация : UTF-8 Plain Text
Продолжительность : 2 ч. 11 м.
Битрейт : 58 бит/сек
Count of elements : 1227
Размер потока : 56,3 Кбайт (0%)
Заголовок : Rus
Язык : Russian
Default : Нет
Forced : Нет

Текст #3
Идентификатор : 4
Формат : UTF-8
Идентификатор кодека : S_TEXT/UTF8
Идентификатор кодека/Информация : UTF-8 Plain Text
Продолжительность : 2 ч. 10 м.
Битрейт : 53 бит/сек
Count of elements : 1474
Размер потока : 50,6 Кбайт (0%)
Заголовок : Original
Язык : English
Default : Нет
Forced : Нет

Меню
00:00:00.000 : en:Глава 01 / en:Глава 01 / en:Глава 01 / en:Глава 01 / en:Глава 01 / en:Глава 01 / en:Глава 01 / en:Глава 01 / en:Глава 01 / en:Глава 01









1. Открыть торрент
2. Снять галки с тех файлов торрента, которые мы не хотим закачивать. Оставляем только на нужных нам файлах (файле).
3. Нажать О.К.

В клиенте utorrent

Инструкция

1) Открыть торрент


2) Снять галки с тех файлов торрента, которые мы не хотим закачивать:

* либо вручную, снимая с каждого файла галку( скрин №1)
* либо, нажав кнопку "Снять метки (Select None)", сняв сразу со всех файлов(скрин №2)
№1

№2

Оставляем только на нужных нам файлах (файле).

3)Нажать О.К






Внимание!!! 23.12. 2016. РАЗДАЧА ОБНОВЛЕНА. ОБНОВИТЕ ТОРЕНТ ФАЙЛ.ПРИЯТНОГО ПРОСМОТРА .

Релиз от: Nikolai.Baranov & PIRATIYA










Скачать Изгоняющий.дьявола.The.Exorcist+Bonys(Сезон.1.Серия.1-10.из.10).(Майкл.Нанкин.Джейсон.Энслер).[2016.Ужасы.триллер.WEB-DL.1080р].[MVO].[SDI.Media.OMSKBIRD.NewStudiо.Kravec.BaibaKo.Kubik.V.Kube.English].+.[Subs.Eng].torrent без регистрации
Золото ЗОЛОТАЯ РАЗДАЧА! СКАЧАННОЕ НЕ ЗАСЧИТЫВАЕТСЯ! Золото
Дата: Зарегистрирован   [ Тип: внутренний ] Как тут cкачать?
MAGNET ссылка
MAGNET ссылка


Скачать .torrent

124 KB

Статус: проверено DHT
Скачан: торрент - 233 раз, раздача полностью - 1 раз
Размер: 48,14 GB
Оценка:  - (Голосов: 0)
Поблагодарили: 1
Поделиться ссылкой на эту раздачу с друзьями:
В контактеFacebookОдноклассникиTwitterLivejournalМой МирLiveinternet
 

 
Показать сообщения:    


Вы не можете начинать темы
Вы не можете отвечать на сообщения
Вы не можете редактировать свои сообщения
Вы не можете удалять свои сообщения
Вы не можете голосовать в опросах
Вы не можете прикреплять файлы к сообщениям
Вы можете скачивать файлы