Loading...
Error

Скачать Мир Дикого запада / Westworld (Сезон 01, серии 01-04 из 10) (Джонатан Нолан, Джонни Кэмпбелл, Ричард Дж. Льюис) [2016 г., фантастика, триллер, вестерн, WEB-DL] [720p] [DVO] (Кубик в Кубе) + [Orig] (Eng) торрент без регистрации

 
Статистика раздачи
Размер:  6,18 GB   |    Скачан:  55 раз
Сидов:  1  [  0 KB/s  ]  
 
Автор Сообщение

leon030982

[] 

Мир Дикого запада / Westworld

Год выпуска: 2016
Страна: США
Жанр: фантастика, триллер, вестерн
Продолжительность: ~ 01:08:00
Перевод: Профессиональный (двухголосый закадровый) Кубик в Кубе
Субтитры: Английские

Режиссёр: Джонатан Нолан, Джонни Кэмпбелл, Ричард Дж. Льюис

В ролях: Энтони Хопкинс, Эд Харрис, Эван Рэйчел Вуд, Джеймс Марсден, Тэнди Ньютон, Джеффри Райт, Тесса Томпсон, Джимми Симпсон, Родриго Санторо, Шеннон Мари Вудворд

Описание: Предлагаем вашему вниманию интересную экскурсию в мир футуризма и роботехники. В центре внимания сериала оказывается небольшой парк развлечений, который специализируется на показе крутых гаджетов, роботов и прочей техники, которая призвана помогать человечеству. В этом заведении андроиды работают как рабы людей, пытаясь сделать все возможное, чтобы посетителям было комфортно. Однако однажды в их программе случается серьезный сбой, который делает из механических существ настоящих опасных убийц, способных навести хаос на всей планете. Что же теперь делать? Неужели начинается апокалипсис?


Качество: WEB-DL 720p
Формат: MKV
Видео кодек: AVC
Аудио кодек: AC3
Видео: 1280x720 (16:9), 23.976 fps, ~2800kbps, ~0.124 bit/pixel
Аудио 1: 48 kHz, AC3, 3/2 (L,C,R,l,r) + LFE ch, ~384.00 kbps avg [DVO]
Аудио 2: 48 kHz, AC3, 3/2 (L,C,R,l,r) + LFE ch, ~384.00 kbps avg [ENG]

Работа со звуком: messafan
General
Unique ID : 226147365756011196684041123476232547646 (0xAA2265FA9E3EEFABBD81B9056D752D3E)
Complete name : E:\Westworld.S01.720p.CasStudio.TV\Westworld.S01E01.The.Original.720p.WEB-DL.KvK.CasStudio.TV.mkv
Format : Matroska
Format version : Version 4 / Version 2
File size : 1.79 GiB
Duration : 1h 11mn
Overall bit rate mode : Variable
Overall bit rate : 3 578 Kbps
Movie name : Westworld 01x01 (The Original) - release by messafan for CasStudio.TV
Encoded date : UTC 2016-10-05 21:33:04
Writing application : mkvmerge v6.7.0 ('Back to the Ground') 64bit built on Jan 8 2014 15:10:52
Writing library : libebml v1.3.0 + libmatroska v1.4.1

Video
ID : 1
Format : AVC
Format/Info : Advanced Video Codec
Format profile : Main@L3.2
Format settings, CABAC : Yes
Format settings, ReFrames : 4 frames
Codec ID : V_MPEG4/ISO/AVC
Duration : 1h 11mn
Bit rate mode : Variable
Bit rate : 2 739 Kbps
Maximum bit rate : 3 510 Kbps
Width : 1 280 pixels
Height : 720 pixels
Display aspect ratio : 16:9
Frame rate mode : Constant
Frame rate : 23.976 fps
Color space : YUV
Chroma subsampling : 4:2:0
Bit depth : 8 bits
Scan type : Progressive
Bits/(Pixel*Frame) : 0.124
Stream size : 1.37 GiB (77%)
Language : English
Default : Yes
Forced : No

Audio #1
ID : 2
Format : AC-3
Format/Info : Audio Coding 3
Mode extension : CM (complete main)
Format settings, Endianness : Big
Codec ID : A_AC3
Duration : 1h 11mn
Bit rate mode : Constant
Bit rate : 384 Kbps
Channel(s) : 6 channels
Channel positions : Front: L C R, Side: L R, LFE
Sampling rate : 48.0 KHz
Compression mode : Lossy
Stream size : 196 MiB (11%)
Title : KvK 5.1
Language : Russian
Default : Yes
Forced : No

Audio #2
ID : 3
Format : AC-3
Format/Info : Audio Coding 3
Mode extension : CM (complete main)
Format settings, Endianness : Big
Codec ID : A_AC3
Duration : 1h 11mn
Bit rate mode : Constant
Bit rate : 384 Kbps
Channel(s) : 6 channels
Channel positions : Front: L C R, Side: L R, LFE
Sampling rate : 48.0 KHz
Compression mode : Lossy
Delay relative to video : 29ms
Stream size : 196 MiB (11%)
Title : English 5.1
Language : English
Default : No
Forced : No

Text #1
ID : 4
Format : UTF-8
Codec ID : S_TEXT/UTF8
Codec ID/Info : UTF-8 Plain Text
Title : Eng sub
Language : English
Default : No
Forced : No

Text #2
ID : 5
Format : UTF-8
Codec ID : S_TEXT/UTF8
Codec ID/Info : UTF-8 Plain Text
Title : SDH
Language : English
Default : No
Forced : No
Внимание! Раздача ведётся путём добавления новых серий; при каждом добавлении создётся новый торрент. Чтобы начать докачку новой серии, пользователям необходимо сделать следующее:
Остановить скачивание.
Удалить старый торрент у себя из клиента (старые серии удалять не надо).
Скачать новый торрент и запустить его у себя в клиенте вместо старого, при этом указать клиенту путь в старую папку куда и должно происходить скачивание новых серий.
Ваш клиент при этом должен произвести хеширование (проверку) старой папки (если не производит сам - помогите ему сделать это), и будет докачивать только те серии которых у вас ещё нет. Старые серии при этом не удаляются, а продолжают раздаваться!
Eсли вы уже удалили старые серии, то предотвратить повторную закачку старых серий можно, отжав галочку в соответсвующих местах при запуске нового торрента. По возможности, желательно не удалять старые серии как можно дольше чтобы релизёр не столько продолжал раздавать старые серии, а смог сконцентрироваться на новых.




Скачать Мир.Дикого.запада.Westworld.(Сезон.01.серии.01-04.из.10).(Джонатан.Нолан.Джонни.Кэмпбелл.Ричард.Дж.Льюис).[2016.г.фантастика.триллер.вестерн.WEB-DL].[720p].[DVO].(Кубик.в.Кубе).+.[Orig].(Eng).torrent без регистрации
Золото ЗОЛОТАЯ РАЗДАЧА! СКАЧАННОЕ НЕ ЗАСЧИТЫВАЕТСЯ! Золото
Дата: Зарегистрирован   [ Тип: внутренний ] Как тут cкачать?
MAGNET ссылка
MAGNET ссылка


Скачать .torrent

32 KB

Статус: проверено DHT
Скачан: торрент - 55 раз, раздача полностью - 8 раз
Размер: 6,18 GB
Оценка:  5 (Голосов: 2)
Поблагодарили: 3
Поделиться ссылкой на эту раздачу с друзьями:
В контактеFacebookОдноклассникиTwitterLivejournalМой МирLiveinternet
 

 
Показать сообщения:    


Вы не можете начинать темы
Вы не можете отвечать на сообщения
Вы не можете редактировать свои сообщения
Вы не можете удалять свои сообщения
Вы не можете голосовать в опросах
Вы не можете прикреплять файлы к сообщениям
Вы можете скачивать файлы