Loading...
Error

Скачать Мегрэ / Maigret (сезоны 01-02) (Джеймс Селлан и др.) [1992–1993, драма, криминал, детектив, DVDRip] [MVO] торрент без регистрации

 
Статистика раздачи
Размер:  12,2 GB   |    Скачан:  17 раз
Сидов:  1  [  0 KB/s  ]  
 
Автор Сообщение

МихаНЕзатор

[] 

Мегрэ / Maigret


Страна: Великобритания
Производство: Granada Television
Год выпуска: 1992–1993
Жанр: драма, криминал, детектив
Режиссеры: Джеймс Селлан Джонс, Джон Гленистер, Стюарт Бёрдж
Авторы сценария: Робин Чэпман, Билл Галлахер, Уильям Хамбл

В ролях: Майкл Гэмбон, Джеффри Хатчингс, Джек Гэлловэй, Джеймс Ларкин, Джон Моффатт, Киаран Мэдден, Барбара Флинн, Шандор Тери, Шандор Сабо

Описание: Самый известный в мире полицейский с трубкой — Жюль Мегрэ - вот уже много лет он раскрывает запутанные преступления — одно за другим — словно разгадывает головоломки. Да так, что оторваться просто невозможно. За свою долгую карьеру Мегрэ приходилось расследовать преступления во всех концах Европы, и его репутация известна далеко за пределами Франции...

Дата премьеры (мир): 9 февраля 1992



Сезоны: 1-2
Серии: 1-12 (из 12)
Продолжительность: 12х ~00:51:00
Перевод: Профессиональный (многоголосый, закадровый) | «Русский репортаж»
Субтитры: нет

Качество: DVDRip
Формат: АVI
Видео кодек: DivX
Аудио кодек: PCM | МР3
Видео: 720x480 (4:3), 29.970 fps, DivX ~1 001 kbps avg
Аудио №1: 48.0 kHz, PCM, 2/0 (L,R) ch, ~1536 kbps | RUS
Аудио №2: 48.0 kHz, MPEG Layer 3, 2 ch, ~192 kbps | ENG

АНОНСЫ ПОПУЛЯРНЫХ РАЗДАЧ
General
Полное имя : D4E3 - Maigret and the maid -moviesbyrizzo().avi
Формат : AVI
Формат/Информация : Audio Video Interleave
Размер файла : 1005 Мбайт
Продолжительность : 51 м.
Общий поток : 2745 Кбит/сек
Программа кодирования : VirtualDubMod 1.5.10.2 (build 2540/release)
Библиотека кодирования : VirtualDubMod build 2540/release

Видео
Идентификатор : 0
Формат : MPEG-4 Visual
Параметр BVOP формата : 1
Параметр QPel формата : Нет
Параметр GMC формата : Без точки перехода
Параметр матрицы формата : Default (H.263)
Режим смешивания : Сжатый битовый поток
Идентификатор кодека : DX50
Идентификатор кодека/Подсказка : DivX 5
Продолжительность : 51 м.
Битрейт : 1001 Кбит/сек
Ширина : 720 пикселей
Высота : 480 пикселей
Соотношение сторон : 4:3
Частота кадров : 29,970 кадров/сек
Стандарт вещания : NTSC
Цветовое пространство : YUV
Субдискретизация насыщенности : 4:2:0
Битовая глубина : 8 бит
Тип развёртки : Прогрессивная
Метод сжатия : С потерями
Бит/(Пиксели*Кадры) : 0.097
Размер потока : 366 Мбайт (36%)
Библиотека кодирования : DivX 2151

Аудио #1
Идентификатор : 1
Формат : PCM
Параметр Endianness формата : Little
Параметр Sign формата : Signed
Идентификатор кодека : 1
Продолжительность : 51 м.
Вид битрейта : Постоянный
Битрейт : 1536 Кбит/сек
Каналы : 2 канала
Частота : 48,0 КГц
Битовая глубина : 16 бит
Размер потока : 562 Мбайт (56%)
Выравнивание : Соединение по промежуткам
Продолжительность промежутка : 33 мс. (1,00 видеокадр)
Время предзагрузки промежутка : 500 мс.

Аудио #2
Идентификатор : 2
Формат : MPEG Audio
Версия формата : Version 1
Профиль формата : Layer 3
Идентификатор кодека : 55
Идентификатор кодека/Подсказка : MP3
Продолжительность : 51 м.
Вид битрейта : Постоянный
Битрейт : 192 Кбит/сек
Каналы : 2 канала
Частота : 48,0 КГц
Метод сжатия : С потерями
Размер потока : 70,3 Мбайт (7%)
Выравнивание : Разделение по промежуткам
Продолжительность промежутка : 33 мс. (1,00 видеокадр)
Время предзагрузки промежутка : 500 мс.



Скачать Мегрэ.Maigret.(сезоны.01-02).(Джеймс.Селлан.и.др.).[1992–1993.драма.криминал.детектив.DVDRip].[MVO].torrent без регистрации
Золото ЗОЛОТАЯ РАЗДАЧА! СКАЧАННОЕ НЕ ЗАСЧИТЫВАЕТСЯ! Золото
Дата: Зарегистрирован   [ Тип: внутренний ] Как тут cкачать?
MAGNET ссылка
MAGNET ссылка


Скачать .torrent

32 KB

Статус: проверено DHT
Скачан: торрент - 17 раз, раздача полностью - 3 раз
Размер: 12,2 GB
Оценка:  5 (Голосов: 1)
Поблагодарили: 4
Поделиться ссылкой на эту раздачу с друзьями:
В контактеFacebookОдноклассникиTwitterLivejournalМой МирLiveinternet
 

 
Показать сообщения:    


Вы не можете начинать темы
Вы не можете отвечать на сообщения
Вы не можете редактировать свои сообщения
Вы не можете удалять свои сообщения
Вы не можете голосовать в опросах
Вы не можете прикреплять файлы к сообщениям
Вы можете скачивать файлы