Loading...
Error

Скачать Развод по-итальянски / Divorzio all'italiana (Пьетро Джерми) [1961, драма, мелодрама, комедия, BDRip-AVC] [Dub]+[MVO]+[Оригинал]+[Sub] торрент без регистрации

 
Статистика раздачи
Размер:  2,74 GB   |    Скачан:  6 раз
Сидов:  1  [  0 KB/s  ]  
 
Автор Сообщение

Marsianka

[] 

Информация о фильме
Название: Развод по-итальянски
Оригинальное название: Divorzio all'italiana
Год выхода: 1961
Жанр: драма, мелодрама, комедия
Режиссер: Пьетро Джерми
В ролях: Марчелло Мастроянни, Даниэла Рокка, Стефания Сандрелли, Леопольдо Триесте, Одоардо Спадаро, Маргерита Джирелли, Анджела Кардиле, Ландо Будзанка, Пьетро Торди, Уго Торренте, Антонио Аккуа, Бьянка Кастаньетта, Джованни Фассиоло, Игнацио Роберто Дайдоне, Франческо Никастро, Эди Ногара, Ренато Пинчироли, Даниела Ильоцци, Лаура Томизелли, Саро Аркидьяконо, Ренцо Мариньяно

О фильме:
Фердинандо приличный семьянин, ему скоро 40 лет, их брак с Росалией длится уже 12 лет, и вроде бы всё идет своим чередом, но вот беда, он влюбляется в свою юную кузину Анжелу, и девушка отвечает ему взаимностью. Фердинандо решает расстаться с ненавистной — глупой женой, чтобы быть всегда вместе с Анжелой, но как это сделать? Развод в Италии практически невозможен. «Проще убить», — решает он и, разработав коварный план, герой начинает действовать.


Страна: Италия
Студия: Lux Film, Vides Cinematografica, Galatea Film
Продолжительность: 01:44:47
Перевод: Дублированный, профессиональный многоголосый

Файл
Кодек: x264
Качество: BDRip-AVC (Divorzio all'italiana 1961 1080p Blu-ray Remux AVC FLAC 5.1-UQ.mkv)
Видео: MPEG-4 AVC, 2906 Кбит/с, 1024x552, 24 кадр/с
Аудио #1: AC3, 2 ch, 192 Кбит/с | Советский дубляж
Аудио #2: AC3, 2 ch, 192 Кбит/с | Профессиональный многоголосый
Аудио #3: AC3, 6 ch, 448 Кбит/с | Итальянский
Субтитры: Английские
Общее
Уникальный идентификатор : 204015519616868476934005581546142000425 (0x997BF5B7BEDD802F86765843876F6529)
Полное имя : Divorzio.all.Italiana.1961.BDRip-AVC.mkv
Формат : Matroska
Версия формата : Version 4 / Version 2
Размер файла : 2,74 Гбайт
Продолжительность : 1 ч. 44 м.
Общий поток : 3741 Кбит/сек
Название фильма : Divorzio all'italiana by Koenig
Дата кодирования : UTC 2016-10-29 09:13:11
Программа кодирования : mkvmerge v9.2.0 ('Photograph') 32bit
Библиотека кодирования : libebml v1.3.3 + libmatroska v1.4.4
Обложка : Yes
Attachments : cover.jpg

Видео
Идентификатор : 1
Формат : AVC
Формат/Информация : Advanced Video Codec
Профиль формата : High@L4.1
Параметр CABAC формата : Да
Параметр ReFrames формата : 11 кадров
Идентификатор кодека : V_MPEG4/ISO/AVC
Продолжительность : 1 ч. 44 м.
Битрейт : 2906 Кбит/сек
Ширина : 1024 пикселя
Высота : 552 пикселя
Соотношение сторон : 1,85:1
Режим частоты кадров : Постоянный
Частота кадров : 24,000 кадра/сек
Цветовое пространство : YUV
Субдискретизация насыщенности : 4:2:0
Битовая глубина : 8 бит
Тип развёртки : Прогрессивная
Бит/(Пиксели*Кадры) : 0.214
Размер потока : 2,13 Гбайт (78%)
Заголовок : Divorzio all'italiana
Библиотека кодирования : x264 core 148 r2692 64f4e24
Настройки программы : cabac=1 / ref=11 / deblock=1:-3:-3 / analyse=0x3:0x133 / me=umh / subme=10 / psy=1 / psy_rd=1.00:0.05 / mixed_ref=1 / me_range=32 / chroma_me=1 / trellis=2 / 8x8dct=1 / cqm=0 / deadzone=21,11 / fast_pskip=1 / chroma_qp_offset=-3 / threads=3 / lookahead_threads=1 / sliced_threads=0 / nr=0 / decimate=1 / interlaced=0 / bluray_compat=0 / constrained_intra=0 / bframes=9 / b_pyramid=2 / b_adapt=2 / b_bias=0 / direct=3 / weightb=1 / open_gop=0 / weightp=2 / keyint=240 / keyint_min=24 / scenecut=40 / intra_refresh=0 / rc_lookahead=40 / rc=2pass / mbtree=1 / bitrate=2906 / ratetol=1.0 / qcomp=0.60 / qpmin=0 / qpmax=51 / qpstep=4 / cplxblur=20.0 / qblur=0.5 / vbv_maxrate=50000 / vbv_bufsize=62500 / nal_hrd=none / filler=0 / ip_ratio=1.40 / aq=1:1.00
Default : Да
Forced : Нет

Аудио #1
Идентификатор : 2
Формат : AC-3
Формат/Информация : Audio Coding 3
Расширение режима : CM (complete main)
Параметр Endianness формата : Big
Идентификатор кодека : A_AC3
Продолжительность : 1 ч. 44 м.
Вид битрейта : Постоянный
Битрейт : 192 Кбит/сек
Каналы : 2 канала
Расположение каналов : Front: L R
Частота : 48,0 КГц
Частота кадров : 31,250 кадров/сек (1536 spf)
Метод сжатия : С потерями
Размер потока : 144 Мбайт (5%)
Заголовок : DUB - Советский
Язык : Russian
Default : Да
Forced : Нет

Аудио #2
Идентификатор : 3
Формат : AC-3
Формат/Информация : Audio Coding 3
Расширение режима : CM (complete main)
Параметр Endianness формата : Big
Идентификатор кодека : A_AC3
Продолжительность : 1 ч. 44 м.
Вид битрейта : Постоянный
Битрейт : 192 Кбит/сек
Каналы : 2 канала
Расположение каналов : Front: L R
Частота : 48,0 КГц
Частота кадров : 31,250 кадров/сек (1536 spf)
Метод сжатия : С потерями
Размер потока : 144 Мбайт (5%)
Заголовок : MVO
Язык : Russian
Default : Нет
Forced : Нет

Аудио #3
Идентификатор : 4
Формат : AC-3
Формат/Информация : Audio Coding 3
Расширение режима : CM (complete main)
Параметр Endianness формата : Big
Идентификатор кодека : A_AC3
Продолжительность : 1 ч. 44 м.
Вид битрейта : Постоянный
Битрейт : 448 Кбит/сек
Каналы : 6 каналов
Расположение каналов : Front: L C R, Side: L R, LFE
Частота : 48,0 КГц
Частота кадров : 31,250 кадров/сек (1536 spf)
Метод сжатия : С потерями
Размер потока : 336 Мбайт (12%)
Заголовок : Original
Язык : Italian
Default : Нет
Forced : Нет

Текст
Идентификатор : 5
Формат : UTF-8
Идентификатор кодека : S_TEXT/UTF8
Идентификатор кодека/Информация : UTF-8 Plain Text
Продолжительность : 1 ч. 41 м.
Битрейт : 49 бит/сек
Count of elements : 992
Размер потока : 37,0 Кбайт (0%)
Язык : English
Default : Нет
Forced : Нет

Меню
00:00:00.000 : en:
00:06:55.250 : en:
00:11:53.958 : en:
00:18:09.916 : en:
00:24:51.666 : en:
00:31:10.458 : en:
00:37:31.875 : en:
00:42:20.208 : en:
00:53:07.041 : en:
00:57:44.166 : en:
01:08:14.250 : en:
01:16:53.416 : en:
01:23:03.416 : en:
01:29:31.416 : en:
01:33:51.125 : en:
01:36:40.125 : en:
01:39:30.708 : en:
01:41:51.416 : en:



Скачать Развод.по-итальянски.Divorzio.all'italiana.(Пьетро.Джерми).[1961.драма.мелодрама.комедия.BDRip-AVC].[Dub]+[MVO]+[Оригинал]+[Sub].torrent без регистрации
Золото ЗОЛОТАЯ РАЗДАЧА! СКАЧАННОЕ НЕ ЗАСЧИТЫВАЕТСЯ! Золото
Дата: Зарегистрирован   [ Тип: внутренний ] Как тут cкачать?
MAGNET ссылка
MAGNET ссылка


Скачать .torrent

15 KB

Статус: проверено DHT
Скачан: торрент - 6 раз, раздача полностью - 8 раз
Размер: 2,74 GB
Оценка:  - (Голосов: 0)
Поблагодарили: 1
Поделиться ссылкой на эту раздачу с друзьями:
В контактеFacebookОдноклассникиTwitterLivejournalМой МирLiveinternet
 

 
Показать сообщения:    


Вы не можете начинать темы
Вы не можете отвечать на сообщения
Вы не можете редактировать свои сообщения
Вы не можете удалять свои сообщения
Вы не можете голосовать в опросах
Вы не можете прикреплять файлы к сообщениям
Вы можете скачивать файлы