Loading...
Error

Скачать Флэш / The Flash (03х01-06 из 23) (Грег Берланти и др.) [2016, приключения, фантастика, драма, боевик, WEBRip] [720p] [MVO (LostFilm)]+[Eng] торрент без регистрации

 
Статистика раздачи
Размер:  8,45 GB   |    Скачан:  8 раз
Сидов:  1  [  0 KB/s  ]  
 
Автор Сообщение

МихаНЕзатор

[] 

✦ Флэш / The Flash ✦


Информация о фильме:
❖ Страна: США
❖ Производство: Berlanti Productions, DC Entertainment, Warner Bros. Television
❖ Год выпуска: 2016
❖ Жанр: фантастика, фэнтези, боевик, драма, приключения
❖ Режиссер: Дэвид Наттер

❖ В ролях: Грант Гастин, Кэндис Паттон, Рик Коснетт, Даниэль Панабэйкер, Карлос Вальдес, Томас Кэвэна, Джесси Л. Мартин, Джон Уэсли Шипп, Стивен Амелл, Ёсиэ Бэнкрофт и др.

Описание фильма:Из-за несчастного случая судмедэксперт Барри Аллен приобретает способность передвигаться с невероятной скоростью. Этот случай делает из него супергероя, которым он всегда мечтал стать. Защищая город, как ангел-хранитель, делая невозможное, спасая жизни со скоростью вспышки, по подсказке Оливера Куина (Стрела), он берёт себе и соответствующее имя - Флэш.



Релиз:
ㅤЧистый рип, без заставки и логотипа
ㅤОзвучивание LostFilm

❖ Перевод: Профессиональный (многоголосый закадровый) [LostFilm]
❖ Продолжительность: по ~ 00:43:00

Технические данные файла:
❖ Качество: WEBRip 720p
❖ Формат: MKV
❖ Видео кодек: MPEG-4 AVC
❖ Аудио кодек: AC3
❖ Видео: 1280x720 (16:9), 23.976 fps, ~3975 kbps (0.177 bit/pixel)
❖ Аудио #1: AC3, 48.0 KHz, 2 ch, 384 kbps | Rus
❖ Аудио #2: AC3, 48.0 KHz, 2 ch, 384 kbps | ENG

АНОНСЫ ПОПУЛЯРНЫХ РАЗДАЧ


Торрент обновлён, добавлена 6-я серия!
General
Unique ID : 240143241391320358338918586181634275303 (0xB4A9E7EC962DF6C39068AE5819ACB7E7)
Complete name : The.Flash.S03.720p.WEB-DL.LostFilmThe.Flash.S03E01.720p.WEB-DL.LostFilm.mkv
Format : Matroska
Format version : Version 4 / Version 2
File size : 1.37 GiB
Duration : 42mn 23s
Overall bit rate : 4 632 Kbps
Encoded date : UTC 2016-10-06 17:49:13
Writing application : mkvmerge v9.1.0 ('Little Earthquakes') 32bit
Writing library : libebml v1.3.3 + libmatroska v1.4.4

Video
ID : 3
Format : AVC
Format/Info : Advanced Video Codec
Format profile : Baseline@L1.3
Format settings, CABAC : No
Format settings, ReFrames : 2 frames
Codec ID : V_MPEG4/ISO/AVC
Duration : 42mn 23s
Bit rate : 3 900 Kbps
Width : 1 280 pixels
Height : 720 pixels
Display aspect ratio : 16:9
Frame rate mode : Constant
Frame rate : 23.976 fps
Color space : YUV
Chroma subsampling : 4:2:0
Bit depth : 8 bits
Scan type : Progressive
Bits/(Pixel*Frame) : 0.177
Stream size : 1.12 GiB (81%)
Writing library : x264 core 148 r2579 73ae2d1
Encoding settings : cabac=0 / ref=2 / deblock=1:0:0 / analyse=0x1:0x111 / me=umh / subme=6 / psy=1 / psy_rd=1.00:0.00 / mixed_ref=1 / me_range=16 / chroma_me=1 / trellis=0 / 8x8dct=0 / cqm=0 / deadzone=21,11 / fast_pskip=1 / chroma_qp_offset=-2 / threads=12 / lookahead_threads=2 / sliced_threads=0 / nr=0 / decimate=1 / interlaced=0 / bluray_compat=0 / constrained_intra=0 / bframes=0 / weightp=0 / keyint=250 / keyint_min=23 / scenecut=40 / intra_refresh=0 / rc_lookahead=40 / rc=abr / mbtree=1 / bitrate=3900 / ratetol=1.0 / qcomp=0.60 / qpmin=0 / qpmax=69 / qpstep=4 / ip_ratio=1.40 / aq=1:1.00
Language : English
Default : Yes
Forced : No

Audio #1
ID : 1
Format : AC-3
Format/Info : Audio Coding 3
Mode extension : CM (complete main)
Format settings, Endianness : Big
Codec ID : A_AC3
Duration : 42mn 23s
Bit rate mode : Constant
Bit rate : 384 Kbps
Channel(s) : 2 channels
Channel positions : Front: L R
Sampling rate : 48.0 KHz
Compression mode : Lossy
Stream size : 116 MiB (8%)
Language : Russian
Default : Yes
Forced : No

Audio #2
ID : 2
Format : AC-3
Format/Info : Audio Coding 3
Mode extension : CM (complete main)
Format settings, Endianness : Big
Codec ID : A_AC3
Duration : 42mn 23s
Bit rate mode : Constant
Bit rate : 384 Kbps
Channel(s) : 6 channels
Channel positions : Front: L C R, Side: L R, LFE
Sampling rate : 48.0 KHz
Compression mode : Lossy
Stream size : 116 MiB (8%)
Language : English
Default : No
Forced : No



Скачать Флэш.The.Flash.(03х01-06.из.23).(Грег.Берланти.и.др.).[2016.приключения.фантастика.драма.боевик.WEBRip].[720p].[MVO.(LostFilm)]+[Eng].torrent без регистрации
Золото ЗОЛОТАЯ РАЗДАЧА! СКАЧАННОЕ НЕ ЗАСЧИТЫВАЕТСЯ! Золото
Дата: Зарегистрирован   [ Тип: внутренний ] Как тут cкачать?
MAGNET ссылка
MAGNET ссылка


Скачать .torrent

43 KB

Статус: проверено DHT
Скачан: торрент - 8 раз, раздача полностью - 0 раз
Размер: 8,45 GB
Оценка:  - (Голосов: 0)
Поблагодарили: 0
Поделиться ссылкой на эту раздачу с друзьями:
В контактеFacebookОдноклассникиTwitterLivejournalМой МирLiveinternet
 

 
Показать сообщения:    


Вы не можете начинать темы
Вы не можете отвечать на сообщения
Вы не можете редактировать свои сообщения
Вы не можете удалять свои сообщения
Вы не можете голосовать в опросах
Вы не можете прикреплять файлы к сообщениям
Вы можете скачивать файлы