Loading...
Error

Скачать Люцифер / Lucifer (02х01-06 из 13) (Лен Уайзман) [2016, Фэнтези, драма, ужасы, WEB-DLRip] [1080p] 5х[MVO]+[Eng] торрент без регистрации

 
Статистика раздачи
Размер:  13,67 GB   |    Скачан:  9 раз
Сидов:  1  [  0 KB/s  ]  
 
Автор Сообщение

МихаНЕзатор

[] 

✦ Люцифер / Lucifer ✦


Информация о сериале
❖ Страна: США
❖ Производство: Aggressive Mediocrity, DC Entertainment, Jerry Bruckheimer Television
❖ Год выпуска: 2016
❖ Жанр: фэнтези, драма, криминал
❖ Режиссер: Нэйтан Хоуп, Грег Биман, Майрзи Алмас

❖ В ролях: Рэйчел Харрис, Лорен Джерман, Кайла Юэлл, Кевин Алехандро, Лесли-Энн Брандт, Д.Б. Вудсайд, Том Эллис, Мэтт Корбой, Скарлет Эстевез

Описание о сериале
От беспросветной скуки в аду Люцифер решает бросить всё и поселиться в Лос-Анджелесе. Используя свой опыт и телепатические способности, он помогает людям решать загадки собственной натуры, вытаскивая наружу их самые глубоко запрятанные секреты и тайные желания. Встретив в своём ночном клубе девушку, герой, сам того не осознавая, начинает испытывать к ней влечение и, следуя за ней, присоединяется к правоохранительным органам Лос-Анджелеса в качестве консультанта. Новая профессия почти полностью удовлетворяет его стремление наказывать грешников, чем он прежде долгое время занимался в аду.



❖ Перевод: Профессиональный (многоголосый закадровый) [LostFilm]
❖ Продолжительность: по ~ 00:45:00

Релиз: ㅤㅤ❖ чистый рип, без заставки и логотипа

Технические данные файла:
❖ Качество: WEB-DL 1080p
❖ Формат: MKV
❖ Видео кодек: MPEG-4 AVC
❖ Аудио кодек: AC3
❖ Видео: 1916x1076 (16:9), 23.976 fps, ~5200 kbps (0.106 bit/pixel)
❖ Аудио # 1: AC3, 48 kHz, 6 ch, 384 kbps | LostFilm
❖ Аудио # 2: AC3, 48 kHz, 6 ch, 384 kbps | Jaskier
❖ Аудио # 3: AC3, 48 kHz, 2 ch, 384 kbps | Кравец
❖ Аудио # 4: AC3, 48 kHz, 6 ch, 384 kbps | OmskBird
❖ Аудио # 5: AC3, 48 kHz, 6 ch, 384 kbps | NewStudio
❖ Аудио # 6: AC3, 48 kHz, 6 ch, 384 kbps | Оригинал

АНОНСЫ ПОПУЛЯРНЫХ РАЗДАЧ


Торрент обновлён, добавлена 6-я серия!
Эпизод 1. Всё идёт по плану, Люцифер (Everything's Coming Up Lucifer)
Эпизод 2. На лгунье и распутное платье горит (Liar, Liar, Slutty Dress on Fire)
Эпизод 3. Пожиратель грехов (Sin-Eater)
Эпизод 4. Женские прелести (Lady Parts)
[color=Olive]General
Unique ID : 220173872775388472979761258262390838522 (0xA5A3F20956763875AC580C2D2E8F14FA)
Complete name : X:фильмыЛюцифер (сезон 2) Lucifer (2016) WEB-DL 1080p - LostFilmLucifer.S02E01.WEB-DL1080p.Rus.Eng.DV.LostFilm.mkv
Format : Matroska
Format version : Version 4 / Version 2
File size : 1.84 GiB
Duration : 43mn 55s
Overall bit rate : 5 997 Kbps
Movie name : Lucifer.S02E01.WEB-DL1080p.Rus.Eng.DV.LostFilm / NNM-Club
Encoded date : UTC 2016-09-22 19:50:57
Writing application : mkvmerge v8.2.0 ('World of Adventure') 64bit
Writing library : libebml v1.3.1 + libmatroska v1.4.2
Attachements : Cover
DURATION : 00:43:55.648000000
NUMBER_OF_FRAMES : 82364
NUMBER_OF_BYTES : 126511104
_STATISTICS_WRITING_APP : mkvmerge v8.2.0 ('World of Adventure') 64bit
_STATISTICS_WRITING_DATE_UT : 2016-09-22 19:50:57
_STATISTICS_TAGS : BPS DURATION NUMBER_OF_FRAMES NUMBER_OF_BYTES

Video
ID : 1
Format : AVC
Format/Info : Advanced Video Codec
Format profile : High@L4
Format settings, CABAC : Yes
Format settings, ReFrames : 4 frames
Codec ID : V_MPEG4/ISO/AVC
Duration : 43mn 55s
Bit rate : 5 110 Kbps
Width : 1 916 pixels
Height : 1 076 pixels
Display aspect ratio : 16:9
Frame rate mode : Constant
Frame rate : 23.976 fps
Color space : YUV
Chroma subsampling : 4:2:0
Bit depth : 8 bits
Scan type : Progressive
Bits/(Pixel*Frame) : 0.103
Stream size : 1.57 GiB (85%)
Language : English
Default : Yes
Forced : No
Color range : Limited
Color primaries : BT.709
Transfer characteristics : BT.709
Matrix coefficients : BT.709

Audio #1
ID : 2
Format : AC-3
Format/Info : Audio Coding 3
Mode extension : CM (complete main)
Format settings, Endianness : Big
Codec ID : A_AC3
Duration : 43mn 55s
Bit rate mode : Constant
Bit rate : 384 Kbps
Channel(s) : 2 channels
Channel positions : Front: L R
Sampling rate : 48.0 KHz
Compression mode : Lossy
Stream size : 121 MiB (6%)
Title : LostFilm
Language : Russian
Default : Yes
Forced : No

Audio #2
ID : 3
Format : AC-3
Format/Info : Audio Coding 3
Mode extension : CM (complete main)
Format settings, Endianness : Big
Codec ID : A_AC3
Duration : 43mn 55s
Bit rate mode : Constant
Bit rate : 384 Kbps
Channel(s) : 6 channels
Channel positions : Front: L C R, Side: L R, LFE
Sampling rate : 48.0 KHz
Compression mode : Lossy
Stream size : 121 MiB (6%)
Language : English
Default : No
Forced : No

Text
ID : 4
Format : UTF-8
Codec ID : S_TEXT/UTF8
Codec ID/Info : UTF-8 Plain Text
Default : No
Forced : No



Скачать Люцифер.Lucifer.(02х01-06.из.13).(Лен.Уайзман).[2016.Фэнтези.драма.ужасы.WEB-DLRip].[1080p].5х[MVO]+[Eng].torrent без регистрации
Золото ЗОЛОТАЯ РАЗДАЧА! СКАЧАННОЕ НЕ ЗАСЧИТЫВАЕТСЯ! Золото
Дата: Зарегистрирован   [ Тип: внутренний ] Как тут cкачать?
MAGNET ссылка
MAGNET ссылка


Скачать .torrent

35 KB

Статус: проверено DHT
Скачан: торрент - 9 раз, раздача полностью - 0 раз
Размер: 13,67 GB
Оценка:  - (Голосов: 0)
Поблагодарили: 0
Поделиться ссылкой на эту раздачу с друзьями:
В контактеFacebookОдноклассникиTwitterLivejournalМой МирLiveinternet
 

 
Показать сообщения:    


Вы не можете начинать темы
Вы не можете отвечать на сообщения
Вы не можете редактировать свои сообщения
Вы не можете удалять свои сообщения
Вы не можете голосовать в опросах
Вы не можете прикреплять файлы к сообщениям
Вы можете скачивать файлы