Loading...
Error

Скачать На острове Сальткрока / Vi pa Saltkrakan (сезон 01) (Улле Хелльбум) [1964, семейныйб BDRip] [720p] [MVO (Омикрон)] торрент без регистрации

 
Статистика раздачи
Размер:  24,18 GB   |    Скачан:  6 раз
Сидов:  1  [  0 KB/s  ]  
 
Автор Сообщение

МихаНЕзатор

[] 

На острове Сальткрока / Ferien auf Saltkrokan / Vi pa Saltkrakan
[S01] (1964) BDRip 720p

Релиз от GYN


Информация о фильме:
Название: На острове Сальткрока
Оригинальное название: Vi pa Saltkrakan / Ferien auf Saltkrokan
Год выхода: 1964
Жанр: семейный
Режиссёр: Улле Хелльбум / Olle Hellbom

В ролях: Торстен Лиллиекрона / Torsten Lilliecrona (Melker Melkersson), Луиз Эдлинд / Louise Edlind (Malin Melkersson), Бьёрн Сёдебэк / Bjorn Soderback (Johan Melkersson), Урбан Страндт / Urban Strand (Niklas Melkersson), Стивен Линдхольм / Stephen Lindholm (Pelle Melkersson), Мария Йоханссон / Maria Johansson (Maria «Tjorven» Grankvist), Лиллемор Остерлунд / Lillemor Osterlund (Teddy Grankvist), Битте Ульвског / Bitte Ulvskog (Freddy Grankvist), Эва Стиберг / Eva Stiberg (Marta Grankvist), Томми Джонсон / Tommy Johnson (Bjorn), Бенгт Эклунд / Bengt Eklund (Nisse Grankvist), Зигфрид Фишер / Siegfried Fischer (Soderman), Кристина Йемтмарк / Kristina Jamtmark (Stina), Эдди Аксберг / Eddie Axberg (Boatswain), Стиг Халлгрен / Stig Hallgren (Jansson), Биргер Ленсандер / Birger Lensander (Mattsson), Вивиан Вестман / Vivianne Westman (Lotta Carlberg), Альф Остлунд / Alf Ostlund (Carlberg), Марта Арбин / Marta Arbin (Mrs sjoblom), Ларс Горан Карлссон / Lars Goran Carlsson (Christer, в титрах не указан), Свен Алмгрен / Sven Almgren (Berra, в титрах не указан), Curt «Minimal» Astrom / (Elis, в титрах не указан)

Сюжет сериала:

Сальткрока - это утопающий в алых розах шиповника и белых гирляндах жасмина остров, где среди серых щербатых скал растут зеленые дубы и березки, цветы на лугу и густой кустарник. Остров, за которым начинается открытое море. Чтобы на него попасть, нужно несколько часов плыть на белом рейсовом пароходике "Сальткрока-I". На нем-то и отправилась в один прекрасный июньский день семья коренных стокгольмцев по фамилии Мелькерссон: отец и четверо детей, чтобы провести незабываемые летние каникулы...



Страна: Швеция
Продолжительность: 13 x ~ 00:27:00 (~05:51:00)
Перевод: Русский профессиональный (многоголосый, закадровый, студия «Омикрон»)
Субтитры: Отсутствуют

Информация о файле:
Качество: BDRip 720p Источник: Blu-Ray Remux 1080i
Файл: MKV
Кодек: MPEG-4 AVC, H264 codec
Видео: 956 x 720, 4:3; 25.000 fps; ~ 9000 kbps; ~ 0.524 bit/pixel
Аудио: 48 kHz, AC3 Dolby Digital, 3/2 (L,C,R,l,r) + LFE ch, ~448.00 kbps

Размер файлов: 13 x 1.85 Gb
Общий размер: 24.18 Gb

АНОНСЫ ПОПУЛЯРНЫХ РАЗДАЧ
General
Unique ID : 217085916142369249841520047197269604646 (0xA3513A0519D031D59806AB2EDDD53926)
Complete name : I:DownloadsWe.on.Seacrow.Island.RUS.BDRip.720p.h264.AC3.-GYN13_Хорошо то, что хорошо кончается!.mkv
Format : Matroska
Format version : Version 4 / Version 2
File size : 1.86 GiB
Duration : 27mn 2s
Overall bit rate mode : Variable
Overall bit rate : 9 848 Kbps
Movie name : Vi pГҐ SaltkrГҐkan
Encoded date : UTC 2016-04-08 13:01:11
Writing application : mkvmerge v6.9.1 ('Blue Panther') 32bit built on Apr 18 2014 18:15:44
Writing library : libebml v1.3.0 + libmatroska v1.4.1

Video
ID : 1
Format : AVC
Format/Info : Advanced Video Codec
Format profile : High@L4.1
Format settings, CABAC : Yes
Format settings, ReFrames : 6 frames
Codec ID : V_MPEG4/ISO/AVC
Duration : 27mn 2s
Bit rate mode : Variable
Bit rate : 9 204 Kbps
Maximum bit rate : 9 014 Kbps
Width : 956 pixels
Height : 720 pixels
Display aspect ratio : 4:3
Frame rate : 25.000 fps
Color space : YUV
Chroma subsampling : 4:2:0
Bit depth : 8 bits
Scan type : Progressive
Bits/(Pixel*Frame) : 0.535
Stream size : 1.74 GiB (93%)
Title : Encoded by GYN
Default : Yes
Forced : No

Audio
ID : 2
Format : AC-3
Format/Info : Audio Coding 3
Mode extension : CM (complete main)
Codec ID : A_AC3
Duration : 27mn 2s
Bit rate mode : Constant
Bit rate : 448 Kbps
Channel(s) : 6 channels
Channel positions : Front: L C R, Side: L R, LFE
Sampling rate : 48.0 KHz
Bit depth : 16 bits
Compression mode : Lossy
Stream size : 86.6 MiB (5%)
Title : MVO «Омикрон»
Language : Russian
Default : Yes
Forced : No
01. Однажды в июне / Июньским днем / En dag i juni

02. Плывем, плывем на Рыбью шхеру... / Гребем, гребем в рыбью шхеру / Ro, ro till Fiskeskar...

03. В тумане... / Заблудились в тумане / Vilse i dimman...

04. Праздник летнего солнцестояния / Настал день летнего равноденствия / Midsommar pa Saltkrakan

05. День, равный жизни / День — равный целой жизни! / Denna dagen - ett liv

06. Пираты / Sjorovarna

07. Опасные приключения / Что происходит на Каттскар? / Vad hander pa Kattskar?

08. Пошёл прочь! / Пошли прочь вместе со своими заколдованными принцами! / Far anda in i baljan

09. Зверюшка для Пелле / Пелле покупает кролика / Ett litet djur at Pelle

10. Гномы существуют / Visst finns det tomtar

11. Хитрый лис по лесу рыщет... / Raven raskar over isen

12. Столярова усадьба в опасности / Snickargarden i fara

13. Все хорошо, что хорошо кончается! / Melker far napp!
ПРИЯТНОГО ПРОСМОТРА!



Скачать На.острове.Сальткрока.Vi.pa.Saltkrakan.(сезон.01).(Улле.Хелльбум).[1964.семейныйб.BDRip].[720p].[MVO.(Омикрон)].torrent без регистрации
Золото ЗОЛОТАЯ РАЗДАЧА! СКАЧАННОЕ НЕ ЗАСЧИТЫВАЕТСЯ! Золото
Дата: Зарегистрирован   [ Тип: внутренний ] Как тут cкачать?
MAGNET ссылка
MAGNET ссылка


Скачать .torrent

123 KB

Статус: проверено DHT
Скачан: торрент - 6 раз, раздача полностью - 0 раз
Размер: 24,18 GB
Оценка:  - (Голосов: 0)
Поблагодарили: 1
Поделиться ссылкой на эту раздачу с друзьями:
В контактеFacebookОдноклассникиTwitterLivejournalМой МирLiveinternet
 

 
Показать сообщения:    


Вы не можете начинать темы
Вы не можете отвечать на сообщения
Вы не можете редактировать свои сообщения
Вы не можете удалять свои сообщения
Вы не можете голосовать в опросах
Вы не можете прикреплять файлы к сообщениям
Вы можете скачивать файлы