Loading...
Error

Скачать Последний кандидат / Designated Survivor (01х01-08 из 13) (Пол А. Эдвардс и др.) [2016, триллер, драма, WEBRip] [720р] [DVO (Sunshine Studio)] торрент без регистрации

 
Статистика раздачи
Размер:  6,48 GB   |    Скачан:  98 раз
Сидов:  1  [  0 KB/s  ]  
 
Автор Сообщение

МихаНЕзатор

[] 

Последний кандидат / Designated Survivor


Страна: США
Производство: ABC Studios, Entertainment 360, Genre Films, The Mark Gordon Company
Год выпуска: 2016
Сезон: 1
Жанр: триллер, драма
Режиссеры: Пол А. Эдвардс, Пол МакГиган, Серджо Мимика-Геззан
Авторы сценария: Дэвид Гуггенхайм, Джон Хэрмон Фельдман, Дженнифер Джонсон

В ролях: Кифер Сазерленд, Наташа МакЭлхоун, Адан Канто, Италиа Риччи, ЛаМоника Гаррет, Кэл Пенн, Мэгги Кью, Майкл Мюррэй Скрэтч

Описание: В центре сюжета находится несущественный член правительства Том Киркман, который после смерти президента и его основных преемников наследует место президента США...

Дата премьеры (мир): 21 сентября 2016



Продолжительность: х ~00:43:00
Перевод: Любительский (двухголосый, закадровый) | Sunshine Studio
Субтитры: нет

Качество: WEBRip 720р
Формат: МКV
Видео кодек: AVC
Аудио кодек: АС3
Видео: 1280x720 (16:9), 23.976 fps, MPEG-4 AVC ~2 900 kbps avg
Аудио: 48.0 kHz, AC3 Dolby Digital, 2/0 (L,R) ch, ~192 kbps

АНОНСЫ ПОПУЛЯРНЫХ РАЗДАЧ


Торрент обновлён, добавлена 8-я серия!
General
Unique ID : 252909214174374183368928084926049778081 (0xBE448AFA1E07B4D59DA957A7DCB779A1)
Complete name : Designated.Survivor.S01E01.720p.SunshineStudio.mkv
Format : Matroska
Format version : Version 4 / Version 2
File size : 976 MiB
Duration : 42mn 34s
Overall bit rate : 3 204 Kbps
Encoded date : UTC 2016-09-22 14:33:05
Writing application : mkvmerge v8.3.0 ('Over the Horizon') 64bit
Writing library : libebml v1.3.1 + libmatroska v1.4.2

Video
ID : 1
Format : AVC
Format/Info : Advanced Video Codec
Format profile : High@L3.1
Format settings, CABAC : Yes
Format settings, ReFrames : 4 frames
Codec ID : V_MPEG4/ISO/AVC
Duration : 42mn 34s
Bit rate : 2 948 Kbps
Width : 1 280 pixels
Height : 720 pixels
Display aspect ratio : 16:9
Frame rate mode : Constant
Frame rate : 23.976 fps
Color space : YUV
Chroma subsampling : 4:2:0
Bit depth : 8 bits
Scan type : Progressive
Bits/(Pixel*Frame) : 0.133
Stream size : 898 MiB (92%)
Writing library : x264 core 146 r2538 121396c
Encoding settings : cabac=1 / ref=1 / deblock=1:0:0 / analyse=0x3:0x113 / me=hex / subme=2 / psy=1 / psy_rd=1.00:0.00 / mixed_ref=0 / me_range=16 / chroma_me=1 / trellis=0 / 8x8dct=1 / cqm=0 / deadzone=21,11 / fast_pskip=1 / chroma_qp_offset=0 / threads=9 / lookahead_threads=3 / sliced_threads=0 / nr=0 / decimate=1 / interlaced=0 / bluray_compat=0 / constrained_intra=0 / bframes=3 / b_pyramid=2 / b_adapt=1 / b_bias=0 / direct=1 / weightb=1 / open_gop=0 / weightp=1 / keyint=250 / keyint_min=23 / scenecut=40 / intra_refresh=0 / rc_lookahead=10 / rc=crf / mbtree=1 / crf=18.0 / qcomp=0.60 / qpmin=0 / qpmax=69 / qpstep=4 / ip_ratio=1.40 / aq=1:1.00
Default : Yes
Forced : No

Audio
ID : 2
Format : AC-3
Format/Info : Audio Coding 3
Mode extension : CM (complete main)
Format settings, Endianness : Big
Codec ID : A_AC3
Duration : 42mn 34s
Bit rate mode : Constant
Bit rate : 192 Kbps
Channel(s) : 2 channels
Channel positions : Front: L R
Sampling rate : 48.0 KHz
Bit depth : 16 bits
Compression mode : Lossy
Stream size : 58.5 MiB (6%)
Default : Yes
Forced : No



Скачать Последний.кандидат.Designated.Survivor.(01х01-08.из.13).(Пол.А.Эдвардс.и.др.).[2016.триллер.драма.WEBRip].[720р].[DVO.(Sunshine.Studio)].torrent без регистрации
Золото ЗОЛОТАЯ РАЗДАЧА! СКАЧАННОЕ НЕ ЗАСЧИТЫВАЕТСЯ! Золото
Дата: Зарегистрирован   [ Тип: внутренний ] Как тут cкачать?
MAGNET ссылка
MAGNET ссылка


Скачать .torrent

34 KB

Статус: проверено DHT
Скачан: торрент - 98 раз, раздача полностью - 1 раз
Размер: 6,48 GB
Оценка:  - (Голосов: 0)
Поблагодарили: 0
Поделиться ссылкой на эту раздачу с друзьями:
В контактеFacebookОдноклассникиTwitterLivejournalМой МирLiveinternet
 

 
Показать сообщения:    


Вы не можете начинать темы
Вы не можете отвечать на сообщения
Вы не можете редактировать свои сообщения
Вы не можете удалять свои сообщения
Вы не можете голосовать в опросах
Вы не можете прикреплять файлы к сообщениям
Вы можете скачивать файлы