Loading...
Error

Скачать Последний кандидат / Designated Survivor (01х01-08 из 13) (Пол А. Эдвардс и др.) [2016, триллер, драма, WEBRip] [DVO (Sunshine Studio)] торрент без регистрации

 
Статистика раздачи
Размер:  3,59 GB   |    Скачан:  112 раз
Сидов:  8  [  0 KB/s  ]   Личеров:  32  [  0 KB/s  ]  
 
Автор Сообщение

МихаНЕзатор

[] 

Последний кандидат / Designated Survivor


Страна: США
Производство: ABC Studios, Entertainment 360, Genre Films, The Mark Gordon Company
Год выпуска: 2016
Сезон: 1
Жанр: триллер, драма
Режиссеры: Пол А. Эдвардс, Пол МакГиган, Серджо Мимика-Геззан
Авторы сценария: Дэвид Гуггенхайм, Джон Хэрмон Фельдман, Дженнифер Джонсон

В ролях: Кифер Сазерленд, Наташа МакЭлхоун, Адан Канто, Италиа Риччи, ЛаМоника Гаррет, Кэл Пенн, Мэгги Кью, Майкл Мюррэй Скрэтч

Описание: В центре сюжета находится несущественный член правительства Том Киркман, который после смерти президента и его основных преемников наследует место президента США...

Дата премьеры (мир): 21 сентября 2016



Продолжительность: х ~00:43:00
Перевод: Любительский (двухголосый, закадровый) | Sunshine Studio
Субтитры: нет

Качество: WEBRip
Формат: АVI
Видео кодек: XviD
Аудио кодек: АС3
Видео: 720x400 (16:9), 23.976 fps, XviD ~1 430 kbps avg
Аудио: 48.0 kHz, AC3 Dolby Digital, 2/0 (L,R) ch, ~192 kbps

АНОНСЫ ПОПУЛЯРНЫХ РАЗДАЧ


Торрент обновлён, добавлена 8-я серия!
General
Complete name : Designated.Survivor.S01E01.400p.SunshineStudio.avi
Format : AVI
Format/Info : Audio Video Interleave
File size : 518 MiB
Duration : 42mn 34s
Overall bit rate : 1 701 Kbps
Writing application : VirtualDubMod 1.5.10.3 | www.virtualdub-fr.org || (build 2550/release)
Writing library : VirtualDubMod build 2550/release

Video
ID : 0
Format : MPEG-4 Visual
Format profile : Advanced Simple@L5
Format settings, BVOP : 2
Format settings, QPel : No
Format settings, GMC : No warppoints
Format settings, Matrix : Default (MPEG)
Codec ID : XVID
Codec ID/Hint : XviD
Duration : 42mn 34s
Bit rate : 1 433 Kbps
Width : 720 pixels
Height : 400 pixels
Display aspect ratio : 16:9
Frame rate : 23.976 fps
Color space : YUV
Chroma subsampling : 4:2:0
Bit depth : 8 bits
Scan type : Progressive
Compression mode : Lossy
Bits/(Pixel*Frame) : 0.208
Stream size : 436 MiB (84%)
Writing library : XviD 1.2.1 (UTC 2008-12-04)

Audio
ID : 1
Format : AC-3
Format/Info : Audio Coding 3
Mode extension : CM (complete main)
Format settings, Endianness : Big
Codec ID : 2000
Duration : 42mn 34s
Bit rate mode : Constant
Bit rate : 192 Kbps
Channel(s) : 2 channels
Channel positions : Front: L R
Sampling rate : 48.0 KHz
Bit depth : 16 bits
Compression mode : Lossy
Stream size : 58.5 MiB (11%)
Alignment : Split accross interleaves



Скачать Последний.кандидат.Designated.Survivor.(01х01-08.из.13).(Пол.А.Эдвардс.и.др.).[2016.триллер.драма.WEBRip].[DVO.(Sunshine.Studio)].torrent без регистрации
Золото ЗОЛОТАЯ РАЗДАЧА! СКАЧАННОЕ НЕ ЗАСЧИТЫВАЕТСЯ! Золото
Дата: Зарегистрирован   [ Тип: внешний ] Как тут cкачать?
MAGNET ссылка
MAGNET ссылка


Скачать .torrent

19 KB

Статус: проверено DHT
Скачан: торрент - 112 раз, раздача полностью - 1 раз
Размер: 3,59 GB
Оценка:  - (Голосов: 0)
Поблагодарили: 0
Поделиться ссылкой на эту раздачу с друзьями:
В контактеFacebookОдноклассникиTwitterLivejournalМой МирLiveinternet
 

 
Показать сообщения:    


Вы не можете начинать темы
Вы не можете отвечать на сообщения
Вы не можете редактировать свои сообщения
Вы не можете удалять свои сообщения
Вы не можете голосовать в опросах
Вы не можете прикреплять файлы к сообщениям
Вы можете скачивать файлы