Loading...
Error

Скачать Странная парочка / The Odd Couple (Сезон 03, серии 01-04 из 13) (Фил Льюис, Марк Сендроуски, Кэти Гарретсон) [2016, Комедия, HDTV] [1080p] [MVO] (FocusStudio) торрент без регистрации

 
Статистика раздачи
Размер:  7,09 GB   |    Скачан:  72 раза
Сидов:  4  [  0 KB/s  ]  
 
Автор Сообщение

leon030982

[] 

Странная парочка | The Odd Couple


«Два холостяка. Одна квартира. Ничего общего.»


Год выпуска: 2016
Страна: США
Жанр: Комедия
Продолжительность: 1x ~ 00:22:00
Перевод: Профессиональный (многоголосый, закадровый) [FocusStudio]
Субтитры: нет

Режиссёр: Фил Льюис / Phill Lewis, Марк Сендроуски / Mark Cendrowski, Кэти Гарретсон / Katy Garretson

В ролях: Matthew Perry (Оскар Мэдисон), Thomas Lennon (Феликс Ангер), Yvette Nicole Brown (Дэни), Lindsay Sloane(Эмили), Wendell Pierce (Тедди), Geoff Stults (Мёрф), Judy Kain (Морин), Dave Foley (Рой) и др.

Описание: Сериал «Странная парочка» рассказывает о жизни двух разведённых приятелей под одной крышей. Фотограф Феликс и спортивный журналист Оскар - два лучших друга, которым приходиться делить одно жилье на двоих, после того как Феликса выставляет из дома его жена Эшли. Совместный быт мужчин средних лет, годами оттачивающих привычки – штука непростая. Приходится многому учиться с нуля и находить точки соприкосновения. Хорошо, что есть очаровательные соседки и ворчливые друзья, способные в нужный момент сгладить углы и вмешаться в процесс приспособления…



Качество: HDTV 1080p
Формат: MKV
Видео кодек: AVC
Аудио кодек: AC3
Видео: 1920x1080 (16:9), 23.976 fps, MPEG-4 AVC ~10.8 Mb/s kbps
Аудио 1: 48 kHz, AC3 Dolby Digital, 3/2 (L,C,R,l,r) + LFE ch, 384.00 kbps [MVO]
Аудио 2: 48 kHz, AC3 Dolby Digital, 3/2 (L,C,R,l,r) + LFE ch, 384.00 kbps [ENG]

Торент обновлен! Добавлена 3-4-я серия!

Релиз --
Перевод: Александр Митраков
Format : Matroska
Format version : Version 4 / Version 2
File size : 1.78 GiB
Duration : 21 min
Overall bit rate : 11.8 Mb/s
Movie name : The Odd Couple 3x1 @ FocusStudio
Encoded date : UTC 2016-10-30 10:58:27
Writing application : mkvmerge v8.1.0 ('Psychedelic Postcard') 64bit
Writing library : libebml v1.3.1 + libmatroska v1.4.2
Video
ID : 1
Format : AVC
Format/Info : Advanced Video Codec
Format profile : High@L4.1
Format settings, CABAC : Yes
Format settings, ReFrames : 4 frames
Codec ID : V_MPEG4/ISO/AVC
Duration : 21 min
Bit rate : 10.8 Mb/s
Width : 1 920 pixels
Height : 1 080 pixels
Display aspect ratio : 16:9
Frame rate mode : Constant
Frame rate : 23.976 (24000/1001) FPS
Color space : YUV
Chroma subsampling : 4:2:0
Bit depth : 8 bits
Scan type : Progressive
Bits/(Pixel*Frame) : 0.218
Stream size : 1.63 GiB (92%)
Writing library : x264 core 148 r2721 72d53ab
Encoding settings : cabac=1 / ref=4 / deblock=1:-3:-3 / analyse=0x3:0x133 / me=umh / subme=11 / psy=1 / psy_rd=1.00:0.00 / mixed_ref=1 / me_range=32 / chroma_me=1 / trellis=2 / 8x8dct=1 / cqm=0 / deadzone=21,11 / fast_pskip=0 / chroma_qp_offset=-2 / threads=16 / lookahead_threads=1 / sliced_threads=0 / nr=0 / decimate=1 / interlaced=0 / bluray_compat=0 / constrained_intra=0 / bframes=5 / b_pyramid=2 / b_adapt=2 / b_bias=0 / direct=3 / weightb=1 / open_gop=0 / weightp=2 / keyint=250 / keyint_min=23 / scenecut=40 / intra_refresh=0 / rc_lookahead=60 / rc=crf / mbtree=1 / crf=17.0 / qcomp=0.60 / qpmin=0 / qpmax=69 / qpstep=4 / ip_ratio=1.40 / aq=1:1.00
Language : English
Default : Yes
Forced : No
Color range : Limited
Matrix coefficients : BT.709
Audio #1
ID : 2
Format : AC-3
Format/Info : Audio Coding 3
Mode extension : CM (complete main)
Format settings, Endianness : Big
Codec ID : A_AC3
Duration : 21 min
Bit rate mode : Constant
Bit rate : 384 kb/s
Channel(s) : 6 channels
Channel positions : Front: L C R, Side: L R, LFE
Sampling rate : 48.0 kHz
Frame rate : 31.250 FPS (1536 spf)
Compression mode : Lossy
Stream size : 59.2 MiB (3%)
Title : MVO FocusStudio
Language : Russian
Default : Yes
Forced : No
Audio #2
ID : 3
Format : AC-3
Format/Info : Audio Coding 3
Mode extension : CM (complete main)
Format settings, Endianness : Big
Codec ID : A_AC3
Duration : 21 min
Bit rate mode : Constant
Bit rate : 384 kb/s
Channel(s) : 6 channels
Channel positions : Front: L C R, Side: L R, LFE
Sampling rate : 48.0 kHz
Frame rate : 31.250 FPS (1536 spf)
Compression mode : Lossy
Stream size : 59.2 MiB (3%)
Language : English
Default : No
Forced : No
Text
ID : 4
Format : ASS
Codec ID : S_TEXT/ASS
Codec ID/Info : Advanced Sub Station Alpha
Compression mode : Lossless
Title : Forced
Language : Russian
Default : Yes
Forced : Yes
Внимание! Раздача ведётся путём добавления новых серий; при каждом добавлении создаётся новый торрент. Чтобы начать докачку новой серии, пользователям необходимо сделать следующее:
(1) остановить скачивание,
(2) удалить старый торрент у себя из клиента (старые серии удалять не надо),
(3) скачать новый торрент и запустить его у себя в клиенте вместо старого, при этом указать клиенту путь в старую папку куда и должно происходить скачивание новых серий.
Ваш клиент при этом должен произвести хеширование (проверку) старой папки (если не производит сам - помогите ему сделать это), и будет докачивать только те серии которых у вас ещё нет. Старые серии при этом не удаляются, а продолжают раздаваться!
Eсли вы уже удалили старые серии, то предотвратить повторную закачку старых серий можно, отжав галочку в соответствующих местах при запуске нового торрента. По возможности, желательно не удалять старые серии как можно дольше чтобы релизер не столько продолжал раздавать старые серии, а смог сконцентрироваться на новых.





Скачать Странная.парочка.The.Odd.Couple.(Сезон.03.серии.01-04.из.13).(Фил.Льюис.Марк.Сендроуски.Кэти.Гарретсон).[2016.Комедия.HDTV].[1080p].[MVO].(FocusStudio).torrent без регистрации
Золото ЗОЛОТАЯ РАЗДАЧА! СКАЧАННОЕ НЕ ЗАСЧИТЫВАЕТСЯ! Золото
Дата: Зарегистрирован   [ Тип: внешний ] Как тут cкачать?
MAGNET ссылка
MAGNET ссылка


Скачать .torrent

72 KB

Статус: проверено DHT
Скачан: торрент - 72 раз, раздача полностью - 1 раз
Размер: 7,09 GB
Оценка:  - (Голосов: 0)
Поблагодарили: 0
Поделиться ссылкой на эту раздачу с друзьями:
В контактеFacebookОдноклассникиTwitterLivejournalМой МирLiveinternet
 

 
Показать сообщения:    


Вы не можете начинать темы
Вы не можете отвечать на сообщения
Вы не можете редактировать свои сообщения
Вы не можете удалять свои сообщения
Вы не можете голосовать в опросах
Вы не можете прикреплять файлы к сообщениям
Вы можете скачивать файлы