Loading...
Error

Скачать Электронные жучки / Багз / Bugs (Сезон 01-04 из 04, серии 01-40 из 40) (Джон Страуд / John Stroud) [1995-1998, детектив, фантастика, приключения, DVDRip] [MVO] (МногоTV) торрент без регистрации

 
Статистика раздачи
Размер:  27,43 GB   |    Скачан:  15 раз
Сидов:  1  [  0 KB/s  ]  
 
Автор Сообщение

leon030982

[] 

Электронные жучки / Багз / Bugs



Год выпуска: 1995-1998
Страна: Великобритания
Жанр: детектив, фантастика, приключения
Продолжительность: 40 x ~ 00:49:42
Перевод: Профессиональный (многоголосый закадровый) - МногоTV

Режиссёр: Джон Страуд / John Stroud

В ролях: Джэй Гриффитс, Джесси Бердсалл, Крейг МакЛоклен, Ян Харви, Паула Хант, Мартин МакДугалл, Стефен Хотон, Гарет Маркс, Майкл Грандадж, Джозеф Мэй

Описание: Команда из трех профессионалов в своем деле (Эд, Ник и Рос) расследует преступления, совершенные злыми гениями научно-технической мысли с помощью новейших технологий.



Качество: DVDRip
Формат: AVI
Видео: 624x480 (1.30:1), 25 fps, XviD build 73 ~1794 kbps avg, 0.24 bit/pixel
Аудио: 48 kHz, AC3 Dolby Digital, 2/0 (L,R) ch, ~224 kbps - 1, 2 сезоны
Аудио: 48 kHz, AC3 Dolby Digital, 2/0 (L,R) ch, ~192 kbps - 3, 4 сезоны
Субтитры: отсутствуют
Общее
Полное имя : H:\Bugs.1995-1998.dvdrip_[teko]\Season_01\s01e01_Out.Of.The.Hive.avi
Формат : AVI
Формат/Информация : Audio Video Interleave
Размер файла : 721 Мбайт
Продолжительность : 49 м.
Общий поток : 2028 Кбит/сек
Программа кодирования : VirtualDubMod 1.5.10.3 | www.virtualdub-fr.org || (build 2550/release)
Библиотека кодирования : VirtualDubMod build 2550/release
Видео
Идентификатор : 0
Формат : MPEG-4 Visual
Профиль формата : Advanced Simple@L5
Параметр BVOP формата : 1
Параметр QPel формата : Нет
Параметр GMC формата : Без точки перехода
Параметр матрицы формата : Выборочная
Идентификатор кодека : XVID
Идентификатор кодека/Подсказка : XviD
Продолжительность : 49 м.
Битрейт : 1795 Кбит/сек
Ширина : 624 пикселя
Высота : 480 пикселей
Соотношение сторон : 4:3
Частота кадров : 25,000 кадров/сек
Цветовое пространство : YUV
Субдискретизация насыщенности : 4:2:0
Битовая глубина : 8 бит
Тип развёртки : Прогрессивная
Метод сжатия : С потерями
Бит/(Пиксели*Кадры) : 0.240
Размер потока : 638 Мбайт (89%)
Библиотека кодирования : XviD 73
Аудио
Идентификатор : 1
Формат : AC-3
Формат/Информация : Audio Coding 3
Расширение режима : CM (complete main)
Параметр Endianness формата : Big
Идентификатор кодека : 2000
Продолжительность : 49 м.
Вид битрейта : Постоянный
Битрейт : 224 Кбит/сек
Каналы : 2 канала
Расположение каналов : Front: L R
Частота : 48,0 КГц
Битовая глубина : 16 бит
Метод сжатия : С потерями
Размер потока : 79,3 Мбайт (11%)
Выравнивание : Разделение по промежуткам
Продолжительность промежутка : 40 мс. (1,00 видеокадр)
Время предзагрузки промежутка : 500 мс.



Скачать Электронные.жучки.Багз.Bugs.(Сезон.01-04.из.04.серии.01-40.из.40).(Джон.Страуд.John.Stroud).[1995-1998.детектив.фантастика.приключения.DVDRip].[MVO].(МногоTV).torrent без регистрации
Золото ЗОЛОТАЯ РАЗДАЧА! СКАЧАННОЕ НЕ ЗАСЧИТЫВАЕТСЯ! Золото
Дата: Зарегистрирован   [ Тип: внутренний ] Как тут cкачать?
MAGNET ссылка
MAGNET ссылка


Скачать .torrent

140 KB

Статус: проверено DHT
Скачан: торрент - 15 раз, раздача полностью - 11 раз
Размер: 27,43 GB
Оценка:  5 (Голосов: 2)
Поблагодарили: 3
Поделиться ссылкой на эту раздачу с друзьями:
В контактеFacebookОдноклассникиTwitterLivejournalМой МирLiveinternet
 

 
Показать сообщения:    


Вы не можете начинать темы
Вы не можете отвечать на сообщения
Вы не можете редактировать свои сообщения
Вы не можете удалять свои сообщения
Вы не можете голосовать в опросах
Вы не можете прикреплять файлы к сообщениям
Вы можете скачивать файлы