Loading...
Error

Скачать Мир Дикого запада / Westworld (01х01-06 из 10) (Джонатан Нолан и др.) [2016, фантастика, триллер, вестерн, HDTVRip-AVC] 3x[MVO Rus, Ukr (AlexFilm, NewStudio, Omikron)]+[Eng] торрент без регистрации

 
Статистика раздачи
Размер:  10,13 GB   |    Скачан:  43 раза
Сидов:  1  [  0 KB/s  ]  
 
Автор Сообщение

МихаНЕзатор

[] 

✦ Мир Дикого запада / Westworld ✦


Информация о сериале
❖ Страна: США
❖ Производство: Bad Robot, Jerry Weintraub Productions, Kilter Films, Warner Bros. Television
❖ Год выпуска: 2016
❖ Жанр: фантастика, триллер, вестерн
❖ Режиссер: Джонатан Нолан, Джонни Кэмпбелл, Ричард Дж. Льюис

❖ В ролях: Энтони Хопкинс, Эд Харрис, Эван Рэйчел Вуд, Джеймс Марсден, Тэнди Ньютон, Джеффри Райт, Тесса Томпсон, Джимми Симпсон, Родриго Санторо, Шеннон Мари Вудворд

Описание о сериалеВ футуристическом парке развлечений андроиды на фоне для исторических декораций становятся рабами людей, выполняя рутинные задания, пока в один момент сбой в программе не превращает их в опасных убийц.



Рип: Игорь_Владимирович

Технические данные файла:
❖ Качество: HDTVRip-AVC
❖ Формат: MKV
❖ Видео кодек: MPEG-4 AVC
❖ Аудио кодек: AC3
❖ Видео: 1024x576 (16:9), 23.976 fps, MPEG-4 AVC ~ 2500 kbps (0.162 bit/pixel)
❖ Аудио#1: Russian: 48 kHz, AC3, 3/2 (L,C,R,l,r) + LFE ch, ~384.00 kbps avg |Многоголосый закадровый, AlexFilm|
❖ Аудио#2: Russian: 48 kHz, AC3, 3/2 (L,C,R,l,r) + LFE ch, ~384.00 kbps avg |Многоголосый закадровый, NewStudio|(нецензурная лексика)
❖ Аудио#3: Ukrainian: 48 kHz, AC3, 3/2 (L,C,R,l,r) + LFE ch, ~384.00 kbps avg |Многоголосый закадровый, Omikron|
❖ Аудио#4: English: 48 kHz, AC3, 3/2 (L,C,R,l,r) + LFE ch, ~384.00 kbps avg

❖ Перевод: Профессиональный (многоголосый закадровый) [AlexFilm, NewStudio]
❖ Продолжительность: 3 x 00:55:00, 1 x ~ 01:08:00

АНОНСЫ ПОПУЛЯРНЫХ РАЗДАЧ


Торрент обновлён, добавлена 6-я серия!
General
Unique ID : 228125764611651966790027292898439872575 (0xAB9F6C92D00213D09B18D4AADDBE403F)
Complete name : Westworld S01.WEBDLRip.(AVC)-ИВ/Westworld S01E01.WEBDLRip.(AVC)-ИВ.mkv
Format : Matroska
Format version : Version 2
File size : 1.95 GiB
Duration : 1h 11mn
Overall bit rate : 3 905 Kbps
Movie name : Westworld S01E01 -ИВ
Encoded date : UTC 2016-10-05 19:12:01
Writing application : mkvmerge v7.8.0 ('River Man') 32bit built on Apr 3 2015 12:11:22
Writing library : libebml v1.3.1 + libmatroska v1.4.2
Attachements : poster (11).jpg

Video
ID : 1
Format : AVC
Format/Info : Advanced Video Codec
Format profile : High@L3.1
Format settings, CABAC : Yes
Format settings, ReFrames : 2 frames
Format settings, GOP : N=1
Codec ID : V_MPEG4/ISO/AVC
Duration : 1h 11mn
Bit rate : 2 291 Kbps
Nominal bit rate : 2 500 Kbps
Width : 1 024 pixels
Height : 576 pixels
Display aspect ratio : 16:9
Frame rate mode : Constant
Frame rate : 23.976 fps
Color space : YUV
Chroma subsampling : 4:2:0
Bit depth : 8 bits
Scan type : Progressive
Bits/(Pixel*Frame) : 0.162
Stream size : 1.14 GiB (59%)
Title : Westworld S01E01 -ИВ
Writing library : x264 core 129
Encoding settings : cabac=1 / ref=2 / deblock=1:0:0 / analyse=0x3:0x113 / me=hex / subme=6 / psy=1 / psy_rd=1.00:0.00 / mixed_ref=1 / me_range=16 / chroma_me=1 / trellis=0 / 8x8dct=1 / cqm=0 / deadzone=21,11 / fast_pskip=1 / chroma_qp_offset=-2 / threads=2 / lookahead_threads=1 / sliced_threads=0 / nr=0 / decimate=1 / interlaced=0 / bluray_compat=0 / constrained_intra=0 / bframes=0 / weightp=2 / keyint=250 / keyint_min=25 / scenecut=40 / intra_refresh=0 / rc_lookahead=40 / rc=2pass / mbtree=1 / bitrate=2500 / ratetol=1.0 / qcomp=0.60 / qpmin=10 / qpmax=51 / qpstep=4 / cplxblur=20.0 / qblur=0.5 / ip_ratio=1.41 / aq=1:1.00
Language : English
Default : Yes
Forced : No

Audio #1
ID : 2
Format : AC-3
Format/Info : Audio Coding 3
Mode extension : CM (complete main)
Format settings, Endianness : Big
Codec ID : A_AC3
Duration : 1h 11mn
Bit rate mode : Constant
Bit rate : 384 Kbps
Channel(s) : 6 channels
Channel positions : Front: L C R, Side: L R, LFE
Sampling rate : 48.0 KHz
Compression mode : Lossy
Delay relative to video : 1s 0ms
Stream size : 196 MiB (10%)
Title : AlexFilm
Language : Russian
Default : Yes
Forced : No

Audio #2
ID : 3
Format : AC-3
Format/Info : Audio Coding 3
Mode extension : CM (complete main)
Format settings, Endianness : Big
Codec ID : A_AC3
Duration : 1h 11mn
Bit rate mode : Constant
Bit rate : 384 Kbps
Channel(s) : 6 channels
Channel positions : Front: L C R, Side: L R, LFE
Sampling rate : 48.0 KHz
Compression mode : Lossy
Delay relative to video : 1s 0ms
Stream size : 196 MiB (10%)
Title : NewStudio
Language : Russian
Default : No
Forced : No

Audio #3
ID : 4
Format : AC-3
Format/Info : Audio Coding 3
Mode extension : CM (complete main)
Format settings, Endianness : Big
Codec ID : A_AC3
Duration : 1h 11mn
Bit rate mode : Constant
Bit rate : 384 Kbps
Channel(s) : 6 channels
Channel positions : Front: L C R, Side: L R, LFE
Sampling rate : 48.0 KHz
Compression mode : Lossy
Stream size : 196 MiB (10%)
Title : Omikron studio for UAteam.tv
Language : Ukrainian
Default : No
Forced : No

Audio #4
ID : 5
Format : AC-3
Format/Info : Audio Coding 3
Mode extension : CM (complete main)
Format settings, Endianness : Big
Codec ID : A_AC3
Duration : 1h 11mn
Bit rate mode : Constant
Bit rate : 384 Kbps
Channel(s) : 6 channels
Channel positions : Front: L C R, Side: L R, LFE
Sampling rate : 48.0 KHz
Compression mode : Lossy
Delay relative to video : 1s 29ms
Stream size : 196 MiB (10%)
Language : English
Default : No
Forced : No



Скачать Мир.Дикого.запада.Westworld.(01х01-06.из.10).(Джонатан.Нолан.и.др.).[2016.фантастика.триллер.вестерн.HDTVRip-AVC].3x[MVO.Rus.Ukr.(AlexFilm.NewStudio.Omikron)]+[Eng].torrent без регистрации
Золото ЗОЛОТАЯ РАЗДАЧА! СКАЧАННОЕ НЕ ЗАСЧИТЫВАЕТСЯ! Золото
Дата: Зарегистрирован   [ Тип: внутренний ] Как тут cкачать?
MAGNET ссылка
MAGNET ссылка


Скачать .torrent

52 KB

Статус: проверено DHT
Скачан: торрент - 43 раз, раздача полностью - 9 раз
Размер: 10,13 GB
Оценка:  - (Голосов: 0)
Поблагодарили: 0
Поделиться ссылкой на эту раздачу с друзьями:
В контактеFacebookОдноклассникиTwitterLivejournalМой МирLiveinternet
 

 
Показать сообщения:    


Вы не можете начинать темы
Вы не можете отвечать на сообщения
Вы не можете редактировать свои сообщения
Вы не можете удалять свои сообщения
Вы не можете голосовать в опросах
Вы не можете прикреплять файлы к сообщениям
Вы можете скачивать файлы