Loading...
Error

Скачать Молодость, больница, любовь / Young Doctors in Love (Гэрри Маршалл) [1982, комедия, ..., DVDRip-AVC] [AVO]x3+[Eng]+[Sub] торрент без регистрации

 
Статистика раздачи
Размер:  3,05 GB   |    Скачан:  8 раз
Сидов:  1  [  0 KB/s  ]  
 
Автор Сообщение

Marsianka

[] 

Название: Молодость, больница, любовь
Оригинальное название: Young Doctors in Love
Год выхода: 1982

Страна: США
Студия: ABC Motion Pictures
Продолжительность: 01:31:33
Жанр: комедия, ...

Режиссер: Гэрри Маршалл
В ролях: Шон Янг, Майкл МакКин, Гари Фридкин, Кайл Т. Хеффнер, Рик Овертон, Кристал Бернард, Тед МакГинли, Сол Рубинек, Гарри Дин Стэнтон, Памела Рид, ...

О фильме: Когда команда студентов-медиков приходит на практику — интернатуру в городскую больницу, все в ней переворачивается вверх дном.
Рвущимся в бой гиперсексуальным практикантам предстоит на пути к гордому званию врача вынести все уколы, стрелы и скальпели в этой гостеприимной и безумной больнице, в которой стены выкрашены как в кафе — мороженом, в медицинских сосудах плавают золотые рыбки, в ординаторской на кушетке под простыней прячется стриптизерка, а лучший способ избавиться от страха перед операционной — позаниматься там любовью…



Кодек: x264
Качество: DVDRip-AVC
Видео: 1024x576, 4000 kbps, 25 fps

- Авторский (одноголосый, закадровый) Яроцкий Михаил
- Авторский (одноголосый, закадровый) Михалёв Алексей Михайлович
- Авторский (одноголосый, закадровый) Санаев Павел Владимирович
Аудио #1: AC-3, 2 ch, 192 kbps (Rus) - AVO Яроцкий Михаил (kyberpunk)
Аудио #2: AC-3, 2 ch, 192 kbps (Rus) - AVO Михалёв Алексей Михайлович
Аудио #3: AC-3, 2 ch, 192 kbps (Rus) - AVO Санаев Павел Владимирович
Аудио #4: AC-3, 2 ch, 192 kbps (Eng)
Субтитры: Английские

x264 [info]: frame I:1105 Avg QP:16.53 size: 66728
x264 [info]: frame P:26261 Avg QP:18.88 size: 35687
x264 [info]: frame B:109966 Avg QP:20.69 size: 15779
x264 [info]: consecutive B-frames: 1.2% 1.0% 6.4% 14.1% 13.8% 39.0% 20.5% 1.2% 0.7% 0.9% 0.3% 0.2% 0.8%

Общее
Уникальный идентификатор : 180679669171149998189100075128037449006 (0x87EDA37609C63EDE99BED8BDDF1A1D2E)
Полное имя : Молодость, больница, любовь (Young Doctors in Love) 1982 DVDRip.mkv
Формат : Matroska
Версия формата : Version 2
Размер файла : 3,05 Гбайт
Продолжительность : 1 ч. 31 м.
Общий поток : 4769 Кбит/сек
Дата кодирования : UTC 2016-11-01 11:03:21
Программа кодирования : mkvmerge v4.0.0 ('The Stars were mine') сборка от Jun 6 2010 16:18:42
Библиотека кодирования : libebml v1.0.0 + libmatroska v1.0.0

Видео
Идентификатор : 1
Формат : AVC
Формат/Информация : Advanced Video Codec
Профиль формата : High@L4.1
Параметр CABAC формата : Да
Параметр ReFrames формата : 12 кадров
Идентификатор кодека : V_MPEG4/ISO/AVC
Продолжительность : 1 ч. 31 м.
Битрейт : 4000 Кбит/сек
Ширина : 1024 пикселя
Высота : 576 пикселей
Соотношение сторон : 16:9
Режим частоты кадров : Постоянный
Частота кадров : 25,000 кадров/сек
Цветовое пространство : YUV
Субдискретизация насыщенности : 4:2:0
Битовая глубина : 8 бит
Тип развёртки : Прогрессивная
Бит/(Пиксели*Кадры) : 0.271
Размер потока : 2,50 Гбайт (82%)
Библиотека кодирования : x264 core 146 r2538 121396c
Настройки программы : cabac=1 / ref=12 / deblock=1:-3:-3 / analyse=0x3:0x133 / me=umh / subme=11 / psy=1 / psy_rd=1.08:0.12 / mixed_ref=1 / me_range=32 / chroma_me=1 / trellis=2 / 8x8dct=1 / cqm=0 / deadzone=21,11 / fast_pskip=0 / chroma_qp_offset=-3 / threads=12 / lookahead_threads=2 / sliced_threads=0 / nr=0 / decimate=0 / interlaced=0 / bluray_compat=0 / constrained_intra=0 / bframes=12 / b_pyramid=2 / b_adapt=2 / b_bias=0 / direct=3 / weightb=1 / open_gop=0 / weightp=2 / keyint=250 / keyint_min=25 / scenecut=40 / intra_refresh=0 / rc=2pass / mbtree=0 / bitrate=4000 / ratetol=1.0 / qcomp=0.60 / qpmin=0 / qpmax=69 / qpstep=4 / cplxblur=20.0 / qblur=0.5 / ip_ratio=1.40 / pb_ratio=1.30 / aq=1:0.90
Язык : English
Default : Нет
Forced : Нет

Аудио #1
Идентификатор : 2
Формат : AC-3
Формат/Информация : Audio Coding 3
Расширение режима : CM (complete main)
Параметр Endianness формата : Big
Идентификатор кодека : A_AC3
Продолжительность : 1 ч. 31 м.
Вид битрейта : Постоянный
Битрейт : 192 Кбит/сек
Каналы : 2 канала
Расположение каналов : Front: L R
Частота : 48,0 КГц
Частота кадров : 31,250 кадров/сек (1536 spf)
Метод сжатия : С потерями
Размер потока : 126 Мбайт (4%)
Заголовок : AVO Яроцкий Михаил (kyberpunk)
Язык : Russian
Default : Нет
Forced : Нет

Аудио #2
Идентификатор : 3
Формат : AC-3
Формат/Информация : Audio Coding 3
Расширение режима : CM (complete main)
Параметр Endianness формата : Big
Идентификатор кодека : A_AC3
Продолжительность : 1 ч. 31 м.
Вид битрейта : Постоянный
Битрейт : 192 Кбит/сек
Каналы : 2 канала
Расположение каналов : Front: L R
Частота : 48,0 КГц
Частота кадров : 31,250 кадров/сек (1536 spf)
Метод сжатия : С потерями
Размер потока : 126 Мбайт (4%)
Заголовок : AVO Михалёв Алексей Михайлович [1944—1994]
Язык : Russian
Default : Нет
Forced : Нет

Аудио #3
Идентификатор : 4
Формат : AC-3
Формат/Информация : Audio Coding 3
Расширение режима : CM (complete main)
Параметр Endianness формата : Big
Идентификатор кодека : A_AC3
Продолжительность : 1 ч. 31 м.
Вид битрейта : Постоянный
Битрейт : 192 Кбит/сек
Каналы : 2 канала
Расположение каналов : Front: L R
Частота : 48,0 КГц
Частота кадров : 31,250 кадров/сек (1536 spf)
Метод сжатия : С потерями
Задержка видео : 6 с. 400 мс.
Размер потока : 126 Мбайт (4%)
Заголовок : AVO Санаев Павел Владимирович
Язык : Russian
Default : Нет
Forced : Нет

Аудио #4
Идентификатор : 5
Формат : AC-3
Формат/Информация : Audio Coding 3
Расширение режима : CM (complete main)
Параметр Endianness формата : Big
Идентификатор кодека : A_AC3
Продолжительность : 1 ч. 31 м.
Вид битрейта : Постоянный
Битрейт : 192 Кбит/сек
Каналы : 2 канала
Расположение каналов : Front: L R
Частота : 48,0 КГц
Частота кадров : 31,250 кадров/сек (1536 spf)
Метод сжатия : С потерями
Размер потока : 126 Мбайт (4%)
Язык : English
Default : Нет
Forced : Нет

Текст
Идентификатор : 6
Формат : UTF-8
Идентификатор кодека : S_TEXT/UTF8
Идентификатор кодека/Информация : UTF-8 Plain Text
Язык : English
Default : Нет
Forced : Нет



Скачать Молодость.больница.любовь.Young.Doctors.in.Love.(Гэрри.Маршалл).[1982.комедия.DVDRip-AVC].[AVO]x3+[Eng]+[Sub].torrent без регистрации
Золото ЗОЛОТАЯ РАЗДАЧА! СКАЧАННОЕ НЕ ЗАСЧИТЫВАЕТСЯ! Золото
Дата: Зарегистрирован   [ Тип: внутренний ] Как тут cкачать?
MAGNET ссылка
MAGNET ссылка


Скачать .torrent

16 KB

Статус: проверено DHT
Скачан: торрент - 8 раз, раздача полностью - 8 раз
Размер: 3,05 GB
Оценка:  - (Голосов: 0)
Поблагодарили: 1
Поделиться ссылкой на эту раздачу с друзьями:
В контактеFacebookОдноклассникиTwitterLivejournalМой МирLiveinternet
 

 
Показать сообщения:    


Вы не можете начинать темы
Вы не можете отвечать на сообщения
Вы не можете редактировать свои сообщения
Вы не можете удалять свои сообщения
Вы не можете голосовать в опросах
Вы не можете прикреплять файлы к сообщениям
Вы можете скачивать файлы