Loading...
Error

Скачать Её звали Никита / La Femme Nikita (сезоны 01-05) (Люк Бессон и др.) [1997–2001, боевик, триллер, драма, мелодрама, DVDRip-AVC] [DVO (НТВ)]+[Eng]+[Sub Eng] торрент без регистрации

 
Статистика раздачи
Размер:  66,51 GB   |    Скачан:  6 раз
Сидов:  1  [  0 KB/s  ]  
 
Автор Сообщение

МихаНЕзатор

[] 

Её звали Никита / La Femme Nikita


Страна: Канада
Производство: CTV Television Network Ltd., BBS, LPN Productions Inc., Fireworks Entertainment
Год выпуска: 1997–2001
Сезоны: 1-5
Серии: 1-96 (из 96)
Жанр: боевик, триллер, драма, мелодрама
Режиссеры: Рене Боньер, Крис Гросс, Джон Кассар
Авторы сценария: Люк Бессон, Майкл Лоцефф, Джоэль Сарноу

В ролях: Пета Уилсон, Рой Дюпюи, Юджин Роберт Глейзер, Альберта Уотсон, Дон Фрэнкс, Мэттью Фергюсон, Карло Рота, Синди Доленц, Шан Филлипс

Описание: Девушка по имени Никита осуждена за преступление, которого не совершала и вынуждена жить по суровому закону «убей или будешь убита». Никите сделали предложение, от которого она не смогла отказаться: она стала членом суперсекретного подразделения под названием Первый Отдел, где несчастные, объявленные вне закона, убийствами добивались для себя помилования. Однако, в отличие от них, у неё ещё сохранилась совесть — фатально непозволительная роскошь для таких отверженных, как она…

Дата премьеры (мир): 13 января 1997



Продолжительность: 96х ~00:45:00
Перевод: Профессиональный (двухголосый, закадровый) | НТВ
Субтитры: английские

Качество: DVDRip-AVC
Формат: МКV
Видео кодек: AVC
Аудио кодек: МР3 | АС3 | AAC
Видео: 704x476@524 (4:3), 23.976 fps, MPEG-4 AVC ~1 900 kbps avg
Аудио №1: 48.0 kHz, MPEG Layer 3, 2 ch, ~128.00 kbps avg | RUS
Аудио №2: 48.0 kHz, AC3 Dolby Digital, 2/0 (L,R) ch, ~192 kbps | ENG
Аудио №3: 48.0 kHz, HE-Advanced Audio Codec, 2/0 (L,R) ch, ~64 kbps | ENG / Commentary
Формат субтитров: UTF-8 Plain Text

АНОНСЫ ПОПУЛЯРНЫХ РАЗДАЧ
General
Unique ID : 241412405657082798745743902125258022910 (0xB59E568DBB4DC0C3BEA4A4D4F66D9FFE)
Complete name : La.Femme.Nikita.S01E01.NTSC.DVD.DD2.0.x264-russ.mkv
Format : Matroska
File size : 733 MiB
Duration : 44mn 49s
Overall bit rate : 2 286 Kbps
Encoded date : UTC 2013-04-04 14:52:36
Writing application : mkvmerge v6.1.0 ('Old Devil') built on Mar 2 2013 14:32:37
Writing library : libebml v1.3.0 + libmatroska v1.4.0

Video
ID : 1
Format : AVC
Format/Info : Advanced Video Codec
Format profile : High@L4.1
Format settings, CABAC : Yes
Format settings, ReFrames : 12 frames
Codec ID : V_MPEG4/ISO/AVC
Duration : 44mn 49s
Nominal bit rate : 1 900 Kbps
Width : 704 pixels
Height : 476 pixels
Display aspect ratio : 4:3
Frame rate : 23.976 fps
Color space : YUV
Chroma subsampling : 4:2:0
Bit depth : 8 bits
Scan type : Progressive
Bits/(Pixel*Frame) : 0.236
Writing library : x264 core 75 r1259 dd026f2
Encoding settings : cabac=1 / ref=12 / deblock=1:-3:-3 / analyse=0x3:0x133 / me=tesa / subme=9 / psy=1 / psy_rd=0.9:0.0 / mixed_ref=1 / me_range=32 / chroma_me=1 / trellis=2 / 8x8dct=1 / cqm=0 / deadzone=21,11 / chroma_qp_offset=-2 / threads=2 / nr=0 / decimate=0 / mbaff=0 / bframes=6 / b_pyramid=0 / b_adapt=2 / b_bias=0 / direct=3 / wpredb=1 / keyint=250 / keyint_min=25 / scenecut=40 / rc_lookahead=0 / rc=2pass / mbtree=0 / bitrate=1900 / ratetol=1.0 / qcomp=0.80 / qpmin=10 / qpmax=51 / qpstep=4 / cplxblur=20.0 / qblur=0.5 / vbv_maxrate=50000 / vbv_bufsize=50000 / ip_ratio=1.10 / pb_ratio=1.10 / aq=1:0.70
Language : English

Audio #1
ID : 2
Format : MPEG Audio
Format version : Version 1
Format profile : Layer 3
Mode : Joint stereo
Mode extension : MS Stereo
Codec ID : A_MPEG/L3
Codec ID/Hint : MP3
Duration : 44mn 49s
Bit rate mode : Constant
Bit rate : 128 Kbps
Channel(s) : 2 channels
Sampling rate : 48.0 KHz
Compression mode : Lossy
Stream size : 41.0 MiB (6%)
Language : Russian

Audio #2
ID : 3
Format : AC-3
Format/Info : Audio Coding 3
Format profile : Dolby Digital
Mode extension : CM (complete main)
Codec ID : A_AC3
Duration : 44mn 49s
Bit rate mode : Constant
Bit rate : 192 Kbps
Channel(s) : 2 channels
Channel positions : Front: L R
Sampling rate : 48.0 KHz
Bit depth : 16 bits
Compression mode : Lossy
Stream size : 61.6 MiB (8%)
Language : English

Audio #3
ID : 4
Format : AAC
Format/Info : Advanced Audio Codec
Format profile : HE-AAC / LC
Codec ID : A_AAC
Duration : 44mn 49s
Channel(s) : 2 channels
Channel positions : Front: L R
Sampling rate : 48.0 KHz / 24.0 KHz
Compression mode : Lossy
Title : Commentary
Language : English

Text
ID : 5
Format : UTF-8
Codec ID : S_TEXT/UTF8
Codec ID/Info : UTF-8 Plain Text
Language : English



Скачать Её.звали.Никита.La.Femme.Nikita.(сезоны.01-05).(Люк.Бессон.и.др.).[1997–2001.боевик.триллер.драма.мелодрама.DVDRip-AVC].[DVO.(НТВ)]+[Eng]+[Sub.Eng].torrent без регистрации
Золото ЗОЛОТАЯ РАЗДАЧА! СКАЧАННОЕ НЕ ЗАСЧИТЫВАЕТСЯ! Золото
Дата: Зарегистрирован   [ Тип: внутренний ] Как тут cкачать?
MAGNET ссылка
MAGNET ссылка


Скачать .torrent

177 KB

Статус: проверено DHT
Скачан: торрент - 6 раз, раздача полностью - 9 раз
Размер: 66,51 GB
Оценка:  5 (Голосов: 1)
Поблагодарили: 1
Поделиться ссылкой на эту раздачу с друзьями:
В контактеFacebookОдноклассникиTwitterLivejournalМой МирLiveinternet
 

 
Показать сообщения:    


Вы не можете начинать темы
Вы не можете отвечать на сообщения
Вы не можете редактировать свои сообщения
Вы не можете удалять свои сообщения
Вы не можете голосовать в опросах
Вы не можете прикреплять файлы к сообщениям
Вы можете скачивать файлы