Loading...
Error

Скачать Супергёрл / Супердевушка / Supergirl (02х01-06 из 22) (Глен Винтер, Дермотт Даунс) [2016, фантастика, боевик, приключения, WEB-DL] [1080p] [MVO (LostFilm)]+[Eng] торрент без регистрации

 
Статистика раздачи
Размер:  10,48 GB   |    Скачан:  14 раз
Сидов:  1  [  0 KB/s  ]  
 
Автор Сообщение

МихаНЕзатор

[] 

✦ Супергёрл / Супердевушка / Supergirl ✦


Информация о фильме:
❖ Страна: США
❖ Производство: Berlanti Productions, Warner Bros. Television
❖ Год выпуска: 2016
❖ Жанр: фантастика, боевик, приключения
❖ Режиссер: Глен Винтер, Дермотт Даунс

❖ В ролях: Мелисса Беноист, Мехкад Брукс, Кайлер Ли, Джереми Джордан, Дэвид Хэрвуд, Калиста Флокхарт, Бриана Венскус, Малина Вайсман, Питер Фачинелли, Джей Джексон

Описание фильма:
"Супергёрл" расскажет историю Кары Зор-Эл с планеты Криптон. После уничтожения родной планеты Кара прибывает на Землю, где скрывает свои сверхчеловеческие способности. Однако по достижении 24 лет она решает использовать свою силу во благо и стать тем героем, которым всегда хотела быть.



Релиз: чистый рип, без заставки и логотипа

❖ Перевод: Профессиональный (многоголосый закадровый) [LostFilm] + Оригинал
❖ Субтитры: Английские
❖ Продолжительность: По ~ 00:46:00

Технические данные файла:
❖ Качество: WEB-DL 1080p
❖ Формат: MKV
❖ Видео: 1916x1074, MPEG-4 AVC, 23.976 fps, ~ 5162 Kbps (0.104 bit/pixel)
❖ Аудио: AC3, 48.0 KHz, 2 ch, 384 Кбит/с RUS | ENG

АНОНСЫ ПОПУЛЯРНЫХ РАЗДАЧ


Торрент обновлён, добавлена 6-я серия!
General
Unique ID : 232722029269871451402169405089647337431 (0xAF14A1EACB93E72FA351BB77ED7A9FD7)
Complete name : Supergirl.S02E01.1080p.WEB-DL.DD5.1.H264.mkv
Format : Matroska
Format version : Version 2
File size : 1.75 GiB
Duration : 42 min 17 s
Overall bit rate : 5 923 kb/s
Encoded date : UTC 2016-10-14 15:40:14
Writing application : mkvmerge v7.9.0 ('Birds') 64bit
Writing library : libebml v1.3.1 + libmatroska v1.4.2
Cover : Yes
Attachments : small_cover.jpg / cover.jpg / cover_land.jpg / small_cover_land.jpg

Video
ID : 1
Format : AVC
Format/Info : Advanced Video Codec
Format profile : High@L4
Format settings, CABAC : Yes
Format settings, ReFrames : 4 frames
Codec ID : V_MPEG4/ISO/AVC
Duration : 42 min 17 s
Bit rate : 5 037 kb/s
Width : 1 916 pixels
Height : 1 074 pixels
Display aspect ratio : 16:9
Frame rate mode : Constant
Frame rate : 23.976 FPS
Color space : YUV
Chroma subsampling : 4:2:0
Bit depth : 8 bits
Scan type : Progressive
Bits/(Pixel*Frame) : 0.102
Stream size : 1.49 GiB (85%)
Language : English
Default : Yes
Forced : No
Color range : Limited
Color primaries : BT.709
Transfer characteristics : BT.709
Matrix coefficients : BT.709

Audio #1
ID : 2
Format : AC-3
Format/Info : Audio Coding 3
Mode extension : CM (complete main)
Format settings, Endianness : Big
Codec ID : A_AC3
Duration : 42 min 17 s
Bit rate mode : Constant
Bit rate : 384 kb/s
Channel(s) : 2 channels
Channel positions : Front: L R
Sampling rate : 48.0 kHz
Frame rate : 31.250 FPS (1536 spf)
Compression mode : Lossy
Stream size : 116 MiB (6%)
Language : Russian
Default : Yes
Forced : No

Audio #2
ID : 3
Format : AC-3
Format/Info : Audio Coding 3
Mode extension : CM (complete main)
Format settings, Endianness : Big
Codec ID : A_AC3
Duration : 42 min 17 s
Bit rate mode : Constant
Bit rate : 384 kb/s
Channel(s) : 6 channels
Channel positions : Front: L C R, Side: L R, LFE
Sampling rate : 48.0 kHz
Frame rate : 31.250 FPS (1536 spf)
Compression mode : Lossy
Stream size : 116 MiB (6%)
Language : English
Default : No
Forced : No

Text
ID : 4
Format : UTF-8
Codec ID : S_TEXT/UTF8
Codec ID/Info : UTF-8 Plain Text
Language : English
Default : No
Forced : No



Скачать Супергёрл.Супердевушка.Supergirl.(02х01-06.из.22).(Глен.Винтер.Дермотт.Даунс).[2016.фантастика.боевик.приключения.WEB-DL].[1080p].[MVO.(LostFilm)]+[Eng].torrent без регистрации
Золото ЗОЛОТАЯ РАЗДАЧА! СКАЧАННОЕ НЕ ЗАСЧИТЫВАЕТСЯ! Золото
Дата: Зарегистрирован   [ Тип: внутренний ] Как тут cкачать?
MAGNET ссылка
MAGNET ссылка


Скачать .torrent

54 KB

Статус: проверено DHT
Скачан: торрент - 14 раз, раздача полностью - 31 раз
Размер: 10,48 GB
Оценка:  - (Голосов: 0)
Поблагодарили: 1
Поделиться ссылкой на эту раздачу с друзьями:
В контактеFacebookОдноклассникиTwitterLivejournalМой МирLiveinternet
 

 
Показать сообщения:    


Вы не можете начинать темы
Вы не можете отвечать на сообщения
Вы не можете редактировать свои сообщения
Вы не можете удалять свои сообщения
Вы не можете голосовать в опросах
Вы не можете прикреплять файлы к сообщениям
Вы можете скачивать файлы