Loading...
Error

/ Westworld ( 01, 01-05 10) ( ) [2016, , , , HDTV] [1080p] [Dub] (Kravec) + 3x[MVO] (Jaskier, NewStudio, Omikron) + [DVO] ( ) + [Orig] (Eng) + [Sub] (Rus, Eng)

 
29,05 GB   |    :  46
1  [  0 KB/s  ]  
 

leon030982

[] 


/ Westworld



: 2016 .
:
: , ,
: 5x ~01:00:00
#1: ( ) [Kravec]
#2: (, ) [Jaskier]
#3: (, ) [NewStudio]
#4: (, ) [ ]
#5: (, ) [Omikron]
:

: / Jonathan Nolan, / Jonny Campbell, . / Richard J. Lewis

: , , , , , , , , ,

: , , .




: HDTV
: MKV
: 1080p
: H.264/AVC
: AC3
: AVC, 1920x1078, ~10000 kbps avg, 23.976 fps,
#1: Russian: 48 kHz, AC3, 3/2 (L,C,R,l,r) LFE ch, ~384.00 kbps avg |, Kravec|
#2: Russian: 48 kHz, AC3, 3/2 (L,C,R,l,r) LFE ch, ~384.00 kbps avg | , Jaskier|
#3: Russian: 48 kHz, AC3, 3/2 (L,C,R,l,r) LFE ch, ~384.00 kbps avg | , NewStudio|
#4: Russian: 48 kHz, AC3, 3/2 (L,C,R,l,r) LFE ch, ~384.00 kbps avg | , |
#5: Ukrainian: 48 kHz, AC3, 3/2 (L,C,R,l,r) LFE ch, ~384.00 kbps avg | , Omikron|
#6: English: 48 kHz, AC3, 3/2 (L,C,R,l,r) LFE ch, ~384.00 kbps avg
C: Russian, English
Episode 01: The Original /
Episode 02: Chestnut /
Episode 03: The Stray /
Episode 04: Dissonance Theory /
Episode 05: Contrapasso /
Episode 06: The Adversary /
Episode 07: Trompe L'Oeil
Episode 08: Trace Decay
Episode 09: The Well-Tempered Clavier
Episode 10: The Bicameral Mind

:

Format : Matroska
Format version : Version 4 / Version 2
File size : 5.00 GiB
Duration : 58mn 32s
Overall bit rate : 12.2 Mbps
Movie name : Westworld 1x03: The Stray
Encoded date : UTC 2016-10-25 21:53:20
Writing application : mkvmerge v9.5.0 ('Quiet Fire') 64bit
Writing library : libebml v1.3.4 libmatroska v1.4.5
DURATION : 00:57:20.852000000
NUMBER_OF_FRAMES : 819
NUMBER_OF_BYTES : 25393
_STATISTICS_WRITING_APP : mkvmerge v9.5.0 ('Quiet Fire') 64bit
_STATISTICS_WRITING_DATE_UT : 2016-10-25 21:53:20
_STATISTICS_TAGS : BPS DURATION NUMBER_OF_FRAMES NUMBER_OF_BYTES
Video
ID : 1
Format : AVC
Format/Info : Advanced Video Codec
Format profile : High@L4.1
Format settings, CABAC : Yes
Format settings, ReFrames : 4 frames
Codec ID : V_MPEG4/ISO/AVC
Duration : 58mn 32s
Bit rate : 9 679 Kbps
Width : 1 920 pixels
Height : 1 074 pixels
Display aspect ratio : 16:9
Frame rate mode : Constant
Frame rate : 23.976 fps
Color space : YUV
Chroma subsampling : 4:2:0
Bit depth : 8 bits
Scan type : Progressive
Bits/(Pixel*Frame) : 0.196
Stream size : 3.96 GiB (79%)
Title : Westworld 1x03: The Stray
Language : English
Default : Yes
Forced : No
Matrix coefficients : BT.709
Color range : Limited
Audio #1
ID : 2
Format : AC-3
Format/Info : Audio Coding 3
Mode extension : CM (complete main)
Format settings, Endianness : Big
Codec ID : A_AC3
Duration : 58mn 32s
Bit rate mode : Constant
Bit rate : 384 Kbps
Channel(s) : 6 channels
Channel positions : Front: L C R, Side: L R, LFE
Sampling rate : 48.0 KHz
Bit depth : 16 bits
Compression mode : Lossy
Stream size : 161 MiB (3%)
Title : Kravec
Language : Russian
Default : Yes
Forced : No
Audio #2
ID : 3
Format : AC-3
Format/Info : Audio Coding 3
Mode extension : CM (complete main)
Format settings, Endianness : Big
Codec ID : A_AC3
Duration : 58mn 32s
Bit rate mode : Constant
Bit rate : 384 Kbps
Channel(s) : 6 channels
Channel positions : Front: L C R, Side: L R, LFE
Sampling rate : 48.0 KHz
Bit depth : 16 bits
Compression mode : Lossy
Stream size : 161 MiB (3%)
Title : Jaskier
Language : Russian
Default : No
Forced : No
Audio #3
ID : 4
Format : AC-3
Format/Info : Audio Coding 3
Mode extension : CM (complete main)
Format settings, Endianness : Big
Codec ID : A_AC3
Duration : 58mn 32s
Bit rate mode : Constant
Bit rate : 384 Kbps
Channel(s) : 6 channels
Channel positions : Front: L C R, Side: L R, LFE
Sampling rate : 48.0 KHz
Bit depth : 16 bits
Compression mode : Lossy
Stream size : 161 MiB (3%)
Title : NewStudio
Language : Russian
Default : No
Forced : No
Audio #4
ID : 5
Format : AC-3
Format/Info : Audio Coding 3
Mode extension : CM (complete main)
Format settings, Endianness : Big
Codec ID : A_AC3
Duration : 58mn 32s
Bit rate mode : Constant
Bit rate : 384 Kbps
Channel(s) : 6 channels
Channel positions : Front: L C R, Side: L R, LFE
Sampling rate : 48.0 KHz
Bit depth : 16 bits
Compression mode : Lossy
Stream size : 161 MiB (3%)
Title : KvK
Language : Russian
Default : No
Forced : No
Audio #5
ID : 6
Format : AC-3
Format/Info : Audio Coding 3
Mode extension : CM (complete main)
Format settings, Endianness : Big
Codec ID : A_AC3
Duration : 58mn 32s
Bit rate mode : Constant
Bit rate : 384 Kbps
Channel(s) : 6 channels
Channel positions : Front: L C R, Side: L R, LFE
Sampling rate : 48.0 KHz
Bit depth : 16 bits
Compression mode : Lossy
Stream size : 161 MiB (3%)
Title : Omikron
Language : Ukrainian
Default : No
Forced : No
Audio #6
ID : 7
Format : AC-3
Format/Info : Audio Coding 3
Mode extension : CM (complete main)
Format settings, Endianness : Big
Codec ID : A_AC3
Duration : 58mn 32s
Bit rate mode : Constant
Bit rate : 384 Kbps
Channel(s) : 6 channels
Channel positions : Front: L C R, Side: L R, LFE
Sampling rate : 48.0 KHz
Bit depth : 16 bits
Compression mode : Lossy
Stream size : 161 MiB (3%)
Language : English
Default : No
Forced : No
Text #1
ID : 8
Format : UTF-8
Codec ID : S_TEXT/UTF8
Codec ID/Info : UTF-8 Plain Text
Language : Russian
Default : No
Forced : No
Text #2
ID : 9
Format : UTF-8
Codec ID : S_TEXT/UTF8
Codec ID/Info : UTF-8 Plain Text
Language : English
Default : No
Forced : No
















...Westworld.(.01..01-05..10).(.).[2016....HDTV].[1080p].[Dub].(Kravec).+.3x[MVO].(Jaskier.NewStudio.Omikron).+.[DVO].(..).+.[Orig].(Eng).+.[Sub].(Rus.Eng).torrent
  ! ! 
:   [ : ] c?
MAGNET
MAGNET


.torrent

146 KB

: DHT
: - 46 , - 6
: 29,05 GB
- (: 0)
: 0
:
 FacebookTwitterLivejournal Liveinternet
 

 
: