Loading...
Error

Скачать Барбароса / Barbarosa (Фред Скеписи) [1982, вестерн, BDRip-AVC] [AVO]x2+[Оригинал]+[Sub] торрент без регистрации

 
Статистика раздачи
Размер:  2,18 GB   |    Скачан:  5 раз
Сидов:  1  [  0 KB/s  ]  
 
Автор Сообщение

Marsianka

[] 

Барбароса / Barbarosa


Страна: США
Жанр: вестерн
Год выпуска: 1982
Продолжительность: 01:29:50

Режиссер: Фред Скеписи / Fred Schepisi

В ролях: Уилли Нельсон, Гэри Бьюзи, Исела Вега, Гилберт Роланд, Дэнни Де Ла Пас, Альма Мартинес, Джордж (Иржи) Восковец, Майкл О'Рурк, Шарон Комптон, Хауленд Чамберлейн, Гарри Сизар, Вольф Музер, Кай Вулфф, Роберто Контрерас, Луис Контрерас, Джоанелль Ромера, Джейк Бьюзи

Описание: Имя знаменитого разбойника Барбаросы наводит ужас на жителей маленького городка в Южном Техасе. Цель жизни каждого мужчины — найти и убить Барбаросу. Но будет ли счастье в поселке, лишенном легенды?..



Качество видео: BDRip-AVC BDRemux
Формат видео: MKV

Видео: AVC, 960x408 (2.35:1), 23.976 fps, 2 893 Kbps (0.308 bit/pixel)
Перевод №1: Авторский (одноголосый закадровый) Андрей Гаврилов
Перевод №2: Авторский (одноголосый закадровый) Алексей Михалев
Cубтитры: английские
Оригинальная аудиодорожка: английский
Аудио №1: AC-3, 48.0 KHz, 2 ch, 192 Kbps, CBR (Russian, AVO, Гаврилов)
Аудио №2: AC-3, 48.0 KHz, 2 ch, 192 Kbps, CBR (Russian, AVO, Михалев)
Аудио №3: AC-3, 48.0 KHz, 2 ch, 192 Kbps, CBR (English)
Формат субтитров: softsub (SRT)

Общее
Уникальный идентификатор : 205176073423230465780461741395914142514 (0x9A5B79702A5CC22EBF8E8FC40CDE3332)
Формат : Matroska
Версия формата : Version 4 / Version 2
Размер файла : 2,18 Гбайт
Продолжительность : 1 ч. 29 м.
Общий поток : 3469 Кбит/сек
Дата кодирования : UTC 2016-11-02 11:12:14
Программа кодирования : mkvmerge v9.1.0 ('Little Earthquakes') 64bit
Библиотека кодирования : libebml v1.3.3 + libmatroska v1.4.4

Видео
Идентификатор : 1
Формат : AVC
Формат/Информация : Advanced Video Codec
Профиль формата : High@L4.1
Параметр CABAC формата : Да
Параметр ReFrames формата : 16 кадров
Идентификатор кодека : V_MPEG4/ISO/AVC
Продолжительность : 1 ч. 29 м.
Битрейт : 2893 Кбит/сек
Ширина : 960 пикселей
Высота : 408 пикселей
Соотношение сторон : 2,35:1
Режим частоты кадров : Постоянный
Частота кадров : 23,976 (24000/1001) кадра/сек
Цветовое пространство : YUV
Субдискретизация насыщенности : 4:2:0
Битовая глубина : 8 бит
Тип развёртки : Прогрессивная
Бит/(Пиксели*Кадры) : 0.308
Размер потока : 1,81 Гбайт (83%)
Библиотека кодирования : x264 core 148 r2638 7599210
Настройки программы : cabac=1 / ref=16 / deblock=1:0:0 / analyse=0x3:0x133 / me=umh / subme=10 / psy=1 / psy_rd=1.00:0.00 / mixed_ref=1 / me_range=24 / chroma_me=1 / trellis=2 / 8x8dct=1 / cqm=0 / deadzone=21,11 / fast_pskip=1 / chroma_qp_offset=-2 / threads=6 / lookahead_threads=1 / sliced_threads=0 / nr=0 / decimate=1 / interlaced=0 / bluray_compat=0 / constrained_intra=0 / bframes=8 / b_pyramid=2 / b_adapt=2 / b_bias=0 / direct=3 / weightb=1 / open_gop=0 / weightp=2 / keyint=240 / keyint_min=23 / scenecut=40 / intra_refresh=0 / rc_lookahead=60 / rc=2pass / mbtree=0 / bitrate=2893 / ratetol=1.0 / qcomp=0.60 / qpmin=0 / qpmax=69 / qpstep=4 / cplxblur=20.0 / qblur=0.5 / vbv_maxrate=62500 / vbv_bufsize=78125 / nal_hrd=none / filler=0 / ip_ratio=1.40 / pb_ratio=1.30 / aq=1:1.00
Default : Да
Forced : Нет

Аудио #1
Идентификатор : 2
Формат : AC-3
Формат/Информация : Audio Coding 3
Расширение режима : CM (complete main)
Параметр Endianness формата : Big
Идентификатор кодека : A_AC3
Продолжительность : 1 ч. 29 м.
Вид битрейта : Постоянный
Битрейт : 192 Кбит/сек
Каналы : 2 канала
Расположение каналов : Front: L R
Частота : 48,0 КГц
Частота кадров : 31,250 кадров/сек (1536 spf)
Метод сжатия : С потерями
Размер потока : 123 Мбайт (6%)
Заголовок : Russian, AVO (Гаврилов)
Язык : Russian
Default : Да
Forced : Нет

Аудио #2
Идентификатор : 3
Формат : AC-3
Формат/Информация : Audio Coding 3
Расширение режима : CM (complete main)
Параметр Endianness формата : Big
Идентификатор кодека : A_AC3
Продолжительность : 1 ч. 29 м.
Вид битрейта : Постоянный
Битрейт : 192 Кбит/сек
Каналы : 2 канала
Расположение каналов : Front: L R
Частота : 48,0 КГц
Частота кадров : 31,250 кадров/сек (1536 spf)
Метод сжатия : С потерями
Размер потока : 123 Мбайт (6%)
Заголовок : Russian, AVO (Михалев)
Язык : Russian
Default : Нет
Forced : Нет

Аудио #3
Идентификатор : 4
Формат : AC-3
Формат/Информация : Audio Coding 3
Расширение режима : CM (complete main)
Параметр Endianness формата : Big
Идентификатор кодека : A_AC3
Продолжительность : 1 ч. 29 м.
Вид битрейта : Постоянный
Битрейт : 192 Кбит/сек
Каналы : 2 канала
Расположение каналов : Front: L R
Частота : 48,0 КГц
Частота кадров : 31,250 кадров/сек (1536 spf)
Метод сжатия : С потерями
Размер потока : 123 Мбайт (6%)
Заголовок : English
Язык : English
Default : Нет
Forced : Нет

Текст
Идентификатор : 5
Формат : UTF-8
Идентификатор кодека : S_TEXT/UTF8
Идентификатор кодека/Информация : UTF-8 Plain Text
Продолжительность : 1 ч. 25 м.
Битрейт : 49 бит/сек
Count of elements : 949
Размер потока : 30,8 Кбайт (0%)
Заголовок : English
Язык : English
Default : Да
Forced : Нет

Меню
00:00:00.000 : en:00:00:00.000
00:02:56.760 : en:00:02:56.760
00:09:44.334 : en:00:09:44.334
00:13:37.025 : en:00:13:37.025
00:20:56.005 : en:00:20:56.005
00:25:32.114 : en:00:25:32.114
00:32:02.671 : en:00:32:02.671
00:38:41.569 : en:00:38:41.569
00:42:42.310 : en:00:42:42.310
00:52:34.234 : en:00:52:34.234
01:02:49.349 : en:01:02:49.349
01:10:03.074 : en:01:10:03.074
01:20:31.493 : en:01:20:31.493
01:24:02.246 : en:01:24:02.246
01:27:06.638 : en:01:27:06.638



Скачать Барбароса.Barbarosa.(Фред.Скеписи).[1982.вестерн.BDRip-AVC].[AVO]x2+[Оригинал]+[Sub].torrent без регистрации
Золото ЗОЛОТАЯ РАЗДАЧА! СКАЧАННОЕ НЕ ЗАСЧИТЫВАЕТСЯ! Золото
Дата: Зарегистрирован   [ Тип: внутренний ] Как тут cкачать?
MAGNET ссылка
MAGNET ссылка


Скачать .torrent

12 KB

Статус: проверено DHT
Скачан: торрент - 5 раз, раздача полностью - 5 раз
Размер: 2,18 GB
Оценка:  - (Голосов: 0)
Поблагодарили: 1
Поделиться ссылкой на эту раздачу с друзьями:
В контактеFacebookОдноклассникиTwitterLivejournalМой МирLiveinternet
 

 
Показать сообщения:    


Вы не можете начинать темы
Вы не можете отвечать на сообщения
Вы не можете редактировать свои сообщения
Вы не можете удалять свои сообщения
Вы не можете голосовать в опросах
Вы не можете прикреплять файлы к сообщениям
Вы можете скачивать файлы