Loading...
Error

Скачать Танец смерти / Slam Dance (Уэйн Уэнг) [1987, триллер, детектив, BDRip-AVC] [DVO]+[Оригинал] торрент без регистрации

 
Статистика раздачи
Размер:  2,18 GB   |    Скачан:  3 раза
Сидов:  1  [  0 KB/s  ]  
 
Автор Сообщение

Marsianka

[] 

Танец смерти / Slam Dance

Страна: Великобритания, США
Жанр: триллер, детектив
Год выпуска: 1987
Продолжительность: 01:39:58

Перевод: Профессиональный (двухголосый закадровый) |НТВ+
Cубтитры: нет
Оригинальная аудиодорожка: английский

Режиссер: Уэйн Уэнг / Wayne Wang

В ролях: Том Халс, Мэри Элизабет Мастрантонио, Вирджиния Мэдсен, Дон Кит Оппер, Адам Энт, Гарри Дин Стэнтон, Джон До, Милли Перкинс, Херта Уэр, Джудит Барси

Описание: Подпольный мультипликатор Друд - человек, чья жизнь под фанфары развалилась на куски. Он разлучен со своей женой и дочерью, хотя до сих пор воображает, что живет со своей семьей. Друд - это такой тип мужчин, который не допустит, чтобы какие-то пустяки вроде брака встали между веселым времяпровождением или горячей, страстной интригой с красивой и таинственной Йоландой. Но в один «прекрасный день» Йоланду находят мертвой и Друд становится главным подозреваемым.



Качество видео: BDRip-AVC BDRemux
Формат видео: MKV

Видео: AVC, 1024x554 (16:9), 23.976 fps, 2 733 Kbps (0.201 bit/pixel)
Аудио №1: AC-3, 48.0 KHz, 2 ch, 192 Kbps, CBR (Russian, MVO (НТВ+))
Аудио №2: AC-3, 48.0 KHz, 2 ch, 192 Kbps, CBR (English)
--[Information] [04.11.2016 0:06:07] Standard error stream
---[Information] [04.11.2016 0:06:15] raw [info]: 1024x554p 1:1 @ 24000/1001 fps (cfr)
---[Information] [04.11.2016 0:06:15] x264 [info]: using SAR=1/1
---[Information] [04.11.2016 0:06:15] x264 [info]: using cpu capabilities: MMX2 SSE2Fast SSSE3 SSE4.2 AVX
---[Information] [04.11.2016 0:06:15] x264 [info]: profile High, level 4.1
---[Information] [04.11.2016 8:09:16] x264 [info]: frame I:917 Avg QP:17.53 size: 65790
---[Information] [04.11.2016 8:09:16] x264 [info]: frame P:26569 Avg QP:20.84 size: 25080
---[Information] [04.11.2016 8:09:16] x264 [info]: frame B:116346 Avg QP:22.93 size: 11347
---[Information] [04.11.2016 8:09:16] x264 [info]: consecutive B-frames: 1.6% 1.3% 3.3% 11.4% 13.2% 40.0% 9.3% 4.1% 15.7%
---[Information] [04.11.2016 8:09:16] x264 [info]: mb I I16..4: 10.9% 77.3% 11.8%
---[Information] [04.11.2016 8:09:16] x264 [info]: mb P I16..4: 1.6% 12.1% 1.0% P16..4: 36.9% 20.2% 12.5% 0.2% 0.1% skip:15.4%
---[Information] [04.11.2016 8:09:16] x264 [info]: mb B I16..4: 0.1% 1.0% 0.1% B16..8: 39.3% 12.1% 3.4% direct: 7.4% skip:36.6% L0:49.6% L1:44.0% BI: 6.4%
---[Information] [04.11.2016 8:09:16] x264 [info]: 8x8 transform intra:82.3% inter:66.5%
---[Information] [04.11.2016 8:09:16] x264 [info]: direct mvs spatial:98.5% temporal:1.5%
---[Information] [04.11.2016 8:09:16] x264 [info]: coded y,uvDC,uvAC intra: 79.8% 76.6% 48.7% inter: 32.1% 22.6% 2.2%
---[Information] [04.11.2016 8:09:16] x264 [info]: i16 v,h,dc,p: 68% 12% 6% 14%
---[Information] [04.11.2016 8:09:16] x264 [info]: i8 v,h,dc,ddl,ddr,vr,hd,vl,hu: 10% 6% 12% 10% 14% 14% 13% 11% 11%
---[Information] [04.11.2016 8:09:16] x264 [info]: i4 v,h,dc,ddl,ddr,vr,hd,vl,hu: 14% 7% 6% 9% 15% 16% 12% 11% 11%
---[Information] [04.11.2016 8:09:16] x264 [info]: i8c dc,h,v,p: 45% 20% 18% 17%
---[Information] [04.11.2016 8:09:16] x264 [info]: Weighted P-Frames: Y:6.0% UV:1.6%
---[Information] [04.11.2016 8:09:16] x264 [info]: ref P L0: 35.7% 10.5% 17.7% 7.2% 6.5% 4.6% 4.5% 2.4% 2.3% 1.8% 1.9% 1.6% 1.6% 1.5% 0.2% 0.0%
---[Information] [04.11.2016 8:09:16] x264 [info]: ref B L0: 54.3% 15.1% 8.9% 5.0% 3.9% 3.4% 2.8% 1.7% 1.5% 1.4% 1.2% 0.7% 0.3%
---[Information] [04.11.2016 8:09:16] x264 [info]: ref B L1: 87.6% 12.4%
---[Information] [04.11.2016 8:09:16] x264 [info]: kb/s:2729.56
---[Information] [04.11.2016 8:09:16] encoded 143832 frames, 4.96 fps, 2729.56 kb/s

Общее
Уникальный идентификатор : 172559587017084784891637362546587953065 (0x81D1C4804D41AC8BBF6E62D8558F67A9)
Формат : Matroska
Версия формата : Version 4 / Version 2
Размер файла : 2,18 Гбайт
Продолжительность : 1 ч. 39 м.
Общий поток : 3115 Кбит/сек
Дата кодирования : UTC 2016-11-04 21:07:10
Программа кодирования : mkvmerge v9.1.0 ('Little Earthquakes') 64bit
Библиотека кодирования : libebml v1.3.3 + libmatroska v1.4.4

Видео
Идентификатор : 1
Формат : AVC
Формат/Информация : Advanced Video Codec
Профиль формата : High@L4.1
Параметр CABAC формата : Да
Параметр ReFrames формата : 14 кадров
Идентификатор кодека : V_MPEG4/ISO/AVC
Продолжительность : 1 ч. 39 м.
Битрейт : 2733 Кбит/сек
Ширина : 1024 пикселя
Высота : 554 пикселя
Соотношение сторон : 1,85:1
Режим частоты кадров : Постоянный
Частота кадров : 23,976 (24000/1001) кадра/сек
Цветовое пространство : YUV
Субдискретизация насыщенности : 4:2:0
Битовая глубина : 8 бит
Тип развёртки : Прогрессивная
Бит/(Пиксели*Кадры) : 0.201
Размер потока : 1,91 Гбайт (88%)
Библиотека кодирования : x264 core 148 r2638 7599210
Настройки программы : cabac=1 / ref=14 / deblock=1:0:0 / analyse=0x3:0x133 / me=umh / subme=10 / psy=1 / psy_rd=1.00:0.00 / mixed_ref=1 / me_range=24 / chroma_me=1 / trellis=2 / 8x8dct=1 / cqm=0 / deadzone=21,11 / fast_pskip=1 / chroma_qp_offset=-2 / threads=6 / lookahead_threads=1 / sliced_threads=0 / nr=0 / decimate=1 / interlaced=0 / bluray_compat=0 / constrained_intra=0 / bframes=8 / b_pyramid=2 / b_adapt=2 / b_bias=0 / direct=3 / weightb=1 / open_gop=0 / weightp=2 / keyint=240 / keyint_min=23 / scenecut=40 / intra_refresh=0 / rc_lookahead=60 / rc=2pass / mbtree=0 / bitrate=2733 / ratetol=1.0 / qcomp=0.60 / qpmin=0 / qpmax=69 / qpstep=4 / cplxblur=20.0 / qblur=0.5 / vbv_maxrate=62500 / vbv_bufsize=78125 / nal_hrd=none / filler=0 / ip_ratio=1.40 / pb_ratio=1.30 / aq=1:1.00
Default : Да
Forced : Нет

Аудио #1
Идентификатор : 2
Формат : AC-3
Формат/Информация : Audio Coding 3
Расширение режима : CM (complete main)
Параметр Endianness формата : Big
Идентификатор кодека : A_AC3
Продолжительность : 1 ч. 39 м.
Вид битрейта : Постоянный
Битрейт : 192 Кбит/сек
Каналы : 2 канала
Расположение каналов : Front: L R
Частота : 48,0 КГц
Частота кадров : 31,250 кадров/сек (1536 spf)
Метод сжатия : С потерями
Размер потока : 137 Мбайт (6%)
Заголовок : Russian, MVO (НТВ+)
Язык : Russian
Default : Да
Forced : Нет

Аудио #2
Идентификатор : 3
Формат : AC-3
Формат/Информация : Audio Coding 3
Расширение режима : CM (complete main)
Параметр Endianness формата : Big
Идентификатор кодека : A_AC3
Продолжительность : 1 ч. 39 м.
Вид битрейта : Постоянный
Битрейт : 192 Кбит/сек
Каналы : 2 канала
Расположение каналов : Front: L R
Частота : 48,0 КГц
Частота кадров : 31,250 кадров/сек (1536 spf)
Метод сжатия : С потерями
Размер потока : 137 Мбайт (6%)
Заголовок : English
Язык : English
Default : Нет
Forced : Нет



Скачать Танец.смерти.Slam.Dance.(Уэйн.Уэнг).[1987.триллер.детектив.BDRip-AVC].[DVO]+[Оригинал].torrent без регистрации
Золото ЗОЛОТАЯ РАЗДАЧА! СКАЧАННОЕ НЕ ЗАСЧИТЫВАЕТСЯ! Золото
Дата: Зарегистрирован   [ Тип: внутренний ] Как тут cкачать?
MAGNET ссылка
MAGNET ссылка


Скачать .torrent

12 KB

Статус: проверено DHT
Скачан: торрент - 3 раз, раздача полностью - 0 раз
Размер: 2,18 GB
Оценка:  - (Голосов: 0)
Поблагодарили: 1
Поделиться ссылкой на эту раздачу с друзьями:
В контактеFacebookОдноклассникиTwitterLivejournalМой МирLiveinternet
 

 
Показать сообщения:    


Вы не можете начинать темы
Вы не можете отвечать на сообщения
Вы не можете редактировать свои сообщения
Вы не можете удалять свои сообщения
Вы не можете голосовать в опросах
Вы не можете прикреплять файлы к сообщениям
Вы можете скачивать файлы