Loading...
Error

Скачать Ходячие мертвецы / The Walking Dead (Сезон 07, серии 01-06 из 16) (Эрнест Р. Дикерсон, Грег Никотеро, Гай Ферленд) [2016, Ужасы, триллер, драма, WEB-DLRip] [MVO] (FOX) торрент без регистрации

 
Статистика раздачи
Размер:  3,31 GB   |    Скачан:  180 раз
Сидов:  1  [  38 KB/s  ]   Личеров:  4  [  0 KB/s  ]  
 
Автор Сообщение

leon030982

[] 


Ходячие мертвецы | The Walking Dead


• Год выпуска: 2016
• Страна: США
• Жанр: Ужасы, триллер, драма
• Продолжительность: ~ 00:43:00
• Перевод: Профессиональный (многоголосый закадровый) | FOX

• Режиссёр: Эрнест Р. Дикерсон, Грег Никотеро, Гай Ферленд

• В ролях: Эндрю Линкольн, Скотт Уилсон, Данай Джекесай Гурира, Дэвид Моррисси, Стивен Юн, Лорен Коэн, Чендлер Риггз, Норман Ридус, Мелисса Сюзанн МакБрайд, Эмили Кинни, Чад Коулмэн, Сонеква Мартин

• Описание: Сериал рассказывает историю жизни семьи шерифа после того, как «зомби» — эпидемия апокалиптических масштабов захлестнула земной шар. Шериф Рик Граймс путешествует со своей семьей и небольшой группой выживших в поисках безопасного места для жизни. Но постоянный страх смерти каждый день приносит тяжелые потери, заставляя героев почувствовать глубины человеческой жестокости.



• Качество: WEB-DLRip
• Формат: AVI
• Видео: XviD, 720x400 (16:9), 23,976 fps, ~1500 kbps
• Аудио #1: MP3, 48 kHz, 2 ch, 128 kbps, CBR - Rus
• Аудио #2: MP3, 48 kHz, 2 ch, 128 kbps, CBR - Eng
• Субтитры: отсутствуют
• Реклама: отсутствует

Торрент обновлён, добавлена 6-я серия!
рип, синхронизация звука qqss44
Общее
Полное имя : X:\ATorrent\TWD (Season 07) FOX\TWD.[S07E01].XviD.FOX.[qqss44].avi
Формат : AVI
Формат/Информация : Audio Video Interleave
Размер файла : 546 Мбайт
Продолжительность : 46 м.
Общий поток : 1656 Кбит/сек
Программа кодирования : VirtualDubMod 1.5.10.3 | www.virtualdub-fr.org || (build 2550/release)
Библиотека кодирования : VirtualDubMod build 2550/release

Видео
Идентификатор : 0
Формат : MPEG-4 Visual
Профиль формата : Advanced Simple@L5
Параметр BVOP формата : 2
Параметр QPel формата : Нет
Параметр GMC формата : Без точки перехода
Параметр матрицы формата : Выборочная
Идентификатор кодека : XVID
Идентификатор кодека/Подсказка : XviD
Продолжительность : 46 м.
Битрейт : 1386 Кбит/сек
Ширина : 720 пикселей
Высота : 400 пикселей
Соотношение сторон : 16:9
Частота кадров : 23,976 (23976/1000) кадра/сек
Цветовое пространство : YUV
Субдискретизация насыщенности : 4:2:0
Битовая глубина : 8 бит
Тип развёртки : Прогрессивная
Метод сжатия : С потерями
Бит/(Пиксели*Кадры) : 0.201
Размер потока : 457 Мбайт (84%)
Библиотека кодирования : XviD 73

Аудио #1
Идентификатор : 1
Формат : MPEG Audio
Версия формата : Version 1
Профиль формата : Layer 3
Режим : Joint stereo
Расширение режима : MS Stereo
Идентификатор кодека : 55
Идентификатор кодека/Подсказка : MP3
Продолжительность : 46 м.
Вид битрейта : Постоянный
Битрейт : 128 Кбит/сек
Каналы : 2 канала
Частота : 48,0 КГц
Метод сжатия : С потерями
Размер потока : 42,2 Мбайт (8%)
Выравнивание : Соединение по промежуткам
Продолжительность промежутка : 42 мс. (1,00 видеокадр)
Время предзагрузки промежутка : 504 мс.

Аудио #2
Идентификатор : 2
Формат : MPEG Audio
Версия формата : Version 1
Профиль формата : Layer 3
Режим : Joint stereo
Расширение режима : MS Stereo
Идентификатор кодека : 55
Идентификатор кодека/Подсказка : MP3
Продолжительность : 46 м.
Вид битрейта : Постоянный
Битрейт : 128 Кбит/сек
Каналы : 2 канала
Частота : 48,0 КГц
Метод сжатия : С потерями
Размер потока : 42,2 Мбайт (8%)
Выравнивание : Соединение по промежуткам
Продолжительность промежутка : 42 мс. (1,00 видеокадр)
Время предзагрузки промежутка : 504 мс.
Когда раздача ведётся путём добавления новых серий, при каждом добавлении создётся новый торрент. Чтобы начать докачку новой серии, пользователям необходимо сделать следующее:
(1) остановить скачивание,
(2) удалить старый торрент у себя из клиента (старые серии удалять не надо),
(3) скачать новый торрент и запустить его у себя в клиенте вместо старого, при этом указать клиенту путь в старую папку, куда и должно происходить скачивание новых серий.
Ваш клиент при этом должен произвести хеширование (проверку) старой папки (если не производит сам - помогите ему сделать это), и будет докачивать только те серии, которых у вас ещё нет. Старые серии при этом не удаляются, а продолжают раздаваться!
Eсли вы уже удалили старые серии, то предотвратить повторную закачку старых серий можно, отжав галочку в соответсвующих местах при запуске нового торрента. По возможности, желательно не удалять старые серии как можно дольше, чтобы релизёр не столько продолжал раздавать старые серии, а смог сконцентрироваться на новых.




Скачать Ходячие.мертвецы.The.Walking.Dead.(Сезон.07.серии.01-06.из.16).(Эрнест.Р.Дикерсон.Грег.Никотеро.Гай.Ферленд).[2016.Ужасы.триллер.драма.WEB-DLRip].[MVO].(FOX).torrent без регистрации
Золото ЗОЛОТАЯ РАЗДАЧА! СКАЧАННОЕ НЕ ЗАСЧИТЫВАЕТСЯ! Золото
Дата: Зарегистрирован   [ Тип: внутренний ] Как тут cкачать?
MAGNET ссылка
MAGNET ссылка


Скачать .torrent

17 KB

Статус: проверено DHT
Скачан: торрент - 180 раз, раздача полностью - 11 раз
Размер: 3,31 GB
Оценка:  - (Голосов: 0)
Поблагодарили: 1
Поделиться ссылкой на эту раздачу с друзьями:
В контактеFacebookОдноклассникиTwitterLivejournalМой МирLiveinternet
 

 
Показать сообщения:    


Вы не можете начинать темы
Вы не можете отвечать на сообщения
Вы не можете редактировать свои сообщения
Вы не можете удалять свои сообщения
Вы не можете голосовать в опросах
Вы не можете прикреплять файлы к сообщениям
Вы можете скачивать файлы