Loading...
Error

Скачать Корона / The Crown (Сезон 01) (Бенжамин Карон, Стивен Долдри, Филип Мартин) [2016, Историческая драма, WEBRip] [MVO] (Jaskier) + [Orig] (Eng) торрент без регистрации

 
Статистика раздачи
Размер:  7,27 GB   |    Скачан:  18 раз
Сидов:  1  [  0 KB/s  ]  
 
Автор Сообщение

leon030982

[] 


Корона | The Crown


Год выпуска: 2016
Страна: Великобритания / Sony Pictures Television Production UK
Жанр: Историческая драма
Продолжительность: ~ 00:59:00
Перевод: Профессиональный (многоголосый закадровый) | Jaskier
Примечание: Присутствует звуковая реклама (два раза в начале и конце по 12 сек.)

Режиссёр: Бенжамин Карон, Стивен Долдри, Филип Мартин

В ролях: Дэниэл Беттс, Джеймс Хиллер, Джереми Нортэм, Джаред Харрис, Ник Оуэнфорд, Мартин Бишоп, Рита МакДональд Дампер, Карл Фаррер и др.

Описание: Нередко сериалы посвящают историческим личностям, которые внесли огромный вклад в развитие различных научных сфер деятельности или культуры. Но если сериал посвящают человеку при жизни, то значит он того явно заслужил. В центре внимания истории "Корона" находится британская королева Елизавета Вторая, которая славится своей харизматичной личностью и умением держать страну "на коротком поводке". Перед нами сериал, который рассказывает о состоянии дел британского правительства на момент окончания Второй Мировой Войны. Жизнь сложно назвать простой и беззаботной, поэтому английские высшие чины пытаются поднять с колен ранее величайшую империю.



Качество: WEBRip
Формат: AVI
Видео: XviD, ~ 1450 kbps, 704x352 (2,000), 25 fps
Аудио 1: MP3, 48,0 КГц, 2 ch, 128 kbps - Rus
Аудио 2: MP3, 48,0 КГц, 2 ch, 128 kbps - Eng
Субтитры: отсутствуют

Торент обновлен! Добавлены все серии! Полный сезон. 1-4 Proper.
Переведено и озвучено: студией Jaskier

Код:

Общее
Полное имя                               : D:\загрузки\Crown (Season 01) Jaskier\The.Crown.S01E01.WEBRip.rus.eng.Jaskier.avi
Формат                                   : AVI
Формат/Информация                        : Audio Video Interleave
Размер файла                             : 701 Мбайт
Продолжительность                        : 56 м.
Общий поток                              : 1744 Кбит/сек
Программа кодирования                    : VirtualDubMod 1.5.10.3 | www.virtualdub-fr.org || (build 2550/release)
Библиотека кодирования                   : VirtualDubMod build 2550/release
Видео
Идентификатор                            : 0
Формат                                   : MPEG-4 Visual
Профиль формата                          : Advanced Simple@L5
Параметр BVOP формата                    : 1
Параметр QPel формата                    : Нет
Параметр GMC формата                     : Без точки перехода
Параметр матрицы формата                 : Default (MPEG)
Идентификатор кодека                     : XVID
Идентификатор кодека/Подсказка           : XviD
Продолжительность                        : 56 м.
Битрейт                                  : 1473 Кбит/сек
Ширина                                   : 704 пикселя
Высота                                   : 352 пикселя
Соотношение сторон                       : 2,000
Частота кадров                           : 25,000 кадров/сек
Цветовое пространство                    : YUV
Субдискретизация насыщенности            : 4:2:0
Битовая глубина                          : 8 бит
Тип развёртки                            : Прогрессивная
Метод сжатия                             : С потерями
Бит/(Пиксели*Кадры)                      : 0.238
Размер потока                            : 592 Мбайт (84%)
Библиотека кодирования                   : XviD 73
Аудио #1
Идентификатор                            : 1
Формат                                   : MPEG Audio
Версия формата                           : Version 1
Профиль формата                          : Layer 3
Режим                                    : Joint stereo
Расширение режима                        : MS Stereo
Идентификатор кодека                     : 55
Идентификатор кодека/Подсказка           : MP3
Продолжительность                        : 56 м.
Вид битрейта                             : Постоянный
Битрейт                                  : 128 Кбит/сек
Каналы                                   : 2 канала
Частота                                  : 48,0 КГц
Метод сжатия                             : С потерями
Размер потока                            : 51,4 Мбайт (7%)
Выравнивание                             : Соединение по промежуткам
Продолжительность промежутка             : 40  мс. (1,00 видеокадр)
Время предзагрузки промежутка            : 504  мс.
Аудио #2
Идентификатор                            : 2
Формат                                   : MPEG Audio
Версия формата                           : Version 1
Профиль формата                          : Layer 3
Режим                                    : Joint stereo
Расширение режима                        : MS Stereo
Идентификатор кодека                     : 55
Идентификатор кодека/Подсказка           : MP3
Продолжительность                        : 56 м.
Вид битрейта                             : Постоянный
Битрейт                                  : 128 Кбит/сек
Каналы                                   : 2 канала
Частота                                  : 48,0 КГц
Метод сжатия                             : С потерями
Размер потока                            : 51,4 Мбайт (7%)
Выравнивание                             : Соединение по промежуткам
Продолжительность промежутка             : 40  мс. (1,00 видеокадр)
Время предзагрузки промежутка            : 504  мс.
Когда раздача ведётся путём добавления новых серий, при каждом добавлении создётся новый торрент. Чтобы начать докачку новой серии, пользователям необходимо сделать следующее:
(1) остановить скачивание,
(2) удалить старый торрент у себя из клиента (старые серии удалять не надо),
(3) скачать новый торрент и запустить его у себя в клиенте вместо старого, при этом указать клиенту путь в старую папку, куда и должно происходить скачивание новых серий.
Ваш клиент при этом должен произвести хеширование (проверку) старой папки (если не производит сам - помогите ему сделать это), и будет докачивать только те серии, которых у вас ещё нет. Старые серии при этом не удаляются, а продолжают раздаваться!
Eсли вы уже удалили старые серии, то предотвратить повторную закачку старых серий можно, отжав галочку в соответсвующих местах при запуске нового торрента. По возможности, желательно не удалять старые серии как можно дольше, чтобы релизёр не столько продолжал раздавать старые серии, а смог сконцентрироваться на новых.




Скачать Корона.The.Crown.(Сезон.01).(Бенжамин.Карон.Стивен.Долдри.Филип.Мартин).[2016.Историческая.драма.WEBRip].[MVO].(Jaskier).+.[Orig].(Eng).torrent без регистрации
Золото ЗОЛОТАЯ РАЗДАЧА! СКАЧАННОЕ НЕ ЗАСЧИТЫВАЕТСЯ! Золото
Дата: Зарегистрирован   [ Тип: внутренний ] Как тут cкачать?
MAGNET ссылка
MAGNET ссылка


Скачать .torrent

38 KB

Статус: проверено DHT
Скачан: торрент - 18 раз, раздача полностью - 6 раз
Размер: 7,27 GB
Оценка:  5 (Голосов: 1)
Поблагодарили: 0
Поделиться ссылкой на эту раздачу с друзьями:
В контактеFacebookОдноклассникиTwitterLivejournalМой МирLiveinternet
 

 

leon030982

[] 

Добавлены все серии! Полный сезон. 1-4 Proper. ab
 
Показать сообщения:    


Вы не можете начинать темы
Вы не можете отвечать на сообщения
Вы не можете редактировать свои сообщения
Вы не можете удалять свои сообщения
Вы не можете голосовать в опросах
Вы не можете прикреплять файлы к сообщениям
Вы можете скачивать файлы