Loading...
Error

Скачать Теория Большого Взрыва / The Big Bang Theory (Сезон 10, серии 01-09 из 24) (Марк Сендроуски, Питер Чакос, Энтони Джозеф Рич) [2016, Ситком, WEB-DL] [1080p] [VO] (Кураж-Бомбей) + [Orig] + [Subs] (Eng) торрент без регистрации

 
Статистика раздачи
Размер:  7,49 GB   |    Скачан:  61 раз
Сидов:  1  [  0 KB/s  ]  
 
Автор Сообщение

leon030982

[] 


Теория Большого Взрыва | The Big Bang Theory


• Год выпуска: 2016
• Страна: США
• Жанр: ситком
• Продолжительность: ~ 00:22:00
• Перевод: Профессиональный (одноголосый закадровый) | Кураж-Бамбей
• Субтитры: английские

• Режиссёр: Марк Сендроуски, Питер Чакос, Энтони Джозеф Рич

• В ролях: Джонни Галекки, Джим Парсонс, Кейли Куоко, Саймон Хельберг, Кунал Найяр и др.

• Описание: Два блестящих физика, Леонард и Шелдон, «великие умы», которые понимают, как «работает вселенная». Но их гениальность ничуть не помогает им общаться с людьми, особенно с женщинами. Всё начинает меняться, когда напротив них поселяется красавица Пенни. Когда Леонард и Шелдон встречают Пенни, Леонард сразу же начинает интересоваться ею. Он видит в общении с Пенни огромную перспективу, вплоть до любви, однако Шелдон понимает, что мечтам его друга не суждено сбыться. Стоит также отметить пару странных друзей этих физиков: Воловиц, который любит употреблять фразы на разных языках, включая русский, и Раджеш Кутрапали, теряющий дар речи при виде женщин.



• Качество: WEB-DL 1080p
• Формат: MKV
• Видео: 1912×1076 at 23.976 fps, MPEG-4 AVC, ~5050 kbps avg
• Аудио #1: 48 kHz, AC3, 3/2 (L,C,R,l,r) + LFE ch, ~384.00 kbps avg |Одноголосый закадровый, Кураж-Бамбей|
• Аудио #2: 48 kHz, AC3, 3/2 (L,C,R,l,r) + LFE ch, ~384.00 kbps avg |Одноголосый закадровый, Кураж-Бамбей по заказу Paramount Comedy|*
• Аудио #3: 48 kHz, AC3, 3/2 (L,C,R,l,r) + LFE ch, ~384.00 kbps avg |Оригинал|

Торент обновлен! Добавлена 9-я серия

Цитата:

Отдельная благодарность k-marat-s за работу над звуковыми дорожками с озвучкой Кураж-Бамбей.
*Дорожка №2 пока только в 1-2 сериях, будет добавляться по мере трансляции сериала на канале Paramount Comedy.
Благодарим xironfs за запись звука с канала Paramount Comedy.
General
Unique ID : 203346972256897698097399516100659990909 (0x98FB33C9BC88299295F431826C07517D)
Complete name : E:\The.Big.Bang.Theory.S10.1080p.WEB-DL.Rus.Eng.HDCLUB\The.Big.Bang.Theory.S10E01.1080p.WEB-DL.Rus.Eng.HDCLUB.mkv
Format : Matroska
Format version : Version 2
File size : 982 MiB
Duration : 21mn 45s
Overall bit rate mode : Variable
Overall bit rate : 6 312 Kbps
Movie name : The Big Bang Theory | Season 10 (2016-2017) | 01: The Conjugal Conjecture (Release for HDCLUB)
Encoded date : UTC 2016-10-27 15:51:24
Writing application : mkvmerge v8.3.0 ('Over the Horizon') 64bit
Writing library : libebml v1.3.1 + libmatroska v1.4.2

Video
ID : 1
Format : AVC
Format/Info : Advanced Video Codec
Format profile : High@L4
Format settings, CABAC : Yes
Format settings, ReFrames : 2 frames
Codec ID : V_MPEG4/ISO/AVC
Duration : 21mn 45s
Bit rate mode : Variable
Bit rate : 5 035 Kbps
Maximum bit rate : 768 Kbps
Width : 1 912 pixels
Height : 1 076 pixels
Display aspect ratio : 16:9
Frame rate mode : Constant
Frame rate : 23.976 fps
Original frame rate : 25.000 fps
Color space : YUV
Chroma subsampling : 4:2:0
Bit depth : 8 bits
Scan type : Progressive
Bits/(Pixel*Frame) : 0.102
Stream size : 784 MiB (80%)
Title : The Big Bang Theory | Season 10 (2016-2017) | 01: The Conjugal Conjecture (Release for HDCLUB)
Language : English
Default : Yes
Forced : No

Audio #1
ID : 2
Format : AC-3
Format/Info : Audio Coding 3
Mode extension : CM (complete main)
Format settings, Endianness : Big
Codec ID : A_AC3
Duration : 21mn 45s
Bit rate mode : Constant
Bit rate : 384 Kbps
Channel(s) : 6 channels
Channel positions : Front: L C R, Side: L R, LFE
Sampling rate : 48.0 KHz
Compression mode : Lossy
Stream size : 59.8 MiB (6%)
Title : DD 5.1 @ 384 kbps (Кураж Бамбей)
Language : Russian
Default : Yes
Forced : No

Audio #2
ID : 3
Format : AC-3
Format/Info : Audio Coding 3
Mode extension : CM (complete main)
Format settings, Endianness : Big
Codec ID : A_AC3
Duration : 21mn 45s
Bit rate mode : Constant
Bit rate : 384 Kbps
Channel(s) : 6 channels
Channel positions : Front: L C R, Side: L R, LFE
Sampling rate : 48.0 KHz
Compression mode : Lossy
Stream size : 59.8 MiB (6%)
Title : DD 5.1 @ 384 kbps (Кураж Бамбей по заказу Paramount Comedy)
Language : Russian
Default : No
Forced : No

Audio #3
ID : 4
Format : AC-3
Format/Info : Audio Coding 3
Mode extension : CM (complete main)
Format settings, Endianness : Big
Codec ID : A_AC3
Duration : 21mn 45s
Bit rate mode : Constant
Bit rate : 384 Kbps
Channel(s) : 6 channels
Channel positions : Front: L C R, Side: L R, LFE
Sampling rate : 48.0 KHz
Compression mode : Lossy
Stream size : 59.8 MiB (6%)
Title : DD 5.1 @ 384 kbps
Language : English
Default : No
Forced : No

Text
ID : 5
Format : UTF-8
Codec ID : S_TEXT/UTF8
Codec ID/Info : UTF-8 Plain Text
Language : English
Default : No
Forced : No
Когда раздача ведётся путём добавления новых серий, при каждом добавлении создётся новый торрент. Чтобы начать докачку новой серии, пользователям необходимо сделать следующее:
(1) остановить скачивание,
(2) удалить старый торрент у себя из клиента (старые серии удалять не надо),
(3) скачать новый торрент и запустить его у себя в клиенте вместо старого, при этом указать клиенту путь в старую папку, куда и должно происходить скачивание новых серий.
Ваш клиент при этом должен произвести хеширование (проверку) старой папки (если не производит сам - помогите ему сделать это), и будет докачивать только те серии, которых у вас ещё нет. Старые серии при этом не удаляются, а продолжают раздаваться!
Eсли вы уже удалили старые серии, то предотвратить повторную закачку старых серий можно, отжав галочку в соответсвующих местах при запуске нового торрента. По возможности, желательно не удалять старые серии как можно дольше, чтобы релизёр не столько продолжал раздавать старые серии, а смог сконцентрироваться на новых.



Скачать Теория.Большого.Взрыва.The.Big.Bang.Theory.(Сезон.10.серии.01-09.из.24).(Марк.Сендроуски.Питер.Чакос.Энтони.Джозеф.Рич).[2016.Ситком.WEB-DL].[1080p].[VO].(Кураж-Бомбей).+.[Orig].+.[Subs].(Eng).torrent без регистрации
Золото ЗОЛОТАЯ РАЗДАЧА! СКАЧАННОЕ НЕ ЗАСЧИТЫВАЕТСЯ! Золото
Дата: Зарегистрирован   [ Тип: внутренний ] Как тут cкачать?
MAGNET ссылка
MAGNET ссылка


Скачать .torrent

39 KB

Статус: проверено DHT
Скачан: торрент - 61 раз, раздача полностью - 7 раз
Размер: 7,49 GB
Оценка:  4 (Голосов: 1)
Поблагодарили: 3
Поделиться ссылкой на эту раздачу с друзьями:
В контактеFacebookОдноклассникиTwitterLivejournalМой МирLiveinternet
 

 
Показать сообщения:    


Вы не можете начинать темы
Вы не можете отвечать на сообщения
Вы не можете редактировать свои сообщения
Вы не можете удалять свои сообщения
Вы не можете голосовать в опросах
Вы не можете прикреплять файлы к сообщениям
Вы можете скачивать файлы