Loading...
Error

Скачать Скорпион / Scorpio (Майкл Уиннер) [1973, боевик, триллер, драма, BDRip-AVC] [MVO]+[Sub]x2 торрент без регистрации

 
Статистика раздачи
Размер:  2,94 GB   |    Скачан:  3 раза
Сидов:  1  [  0 KB/s  ]  
 
Автор Сообщение

Marsianka

[] 

Информация о фильме
Название: Скорпион
Оригинальное название: Scorpio
Год выхода: 1973
Жанр: боевик, триллер, драма
Режиссер: Майкл Уиннер
В ролях: Ален Делон, Бёрт Ланкастер, Пол Скофилд, Джон Коликос, Гэйл Ханникат, Дж.Д. Кэннон, Джоэнн Линвилл, Мел Стюарт, Владек Шейбал, Мэри Мод

О фильме:
Джеральд Кросс многие годы работал на разведку США. В своем деле он был одним из лучших. Во Франции у него был ученик по имени Жан Лорье. Джеральд решает завязать и собирается отправиться на заслуженный отдых. Но шпион знает слишком много и боссы не хотят отпускать его. Тогда Кросс решает бежать из страны. Чтобы разыскать его, разведывательное управление обращается за помощью к Жану, который знает своего учителя лучше всех. Если кто-то и сможет найти Джеральда, то только Лорье. В награду ему предлагают занять место его бывшего наставника.



Страна: США
Студия: The Mirisch Corporation, Scimitar Productions
Продолжительность: 01:54:34
Перевод: Профессиональный многоголосый

Файл
Качество: BDRip (AVC)
Видео: MPEG-4 AVC, 3285 Kбит/с, 1024x554, 23.976 кадр/с
Аудио: Русский, английский (AC3, 1 ch, 192 Кбит/с)
Субтитры: Русские, английские
General
Unique ID : 239783484624388803736329755479794551005 (0xB4649E8BCE356C7C83F4CE0BAF4488DD)
Complete name : E:Scorpio.1973.AVC.ExKinoRay.mkv
Format : Matroska
Format version : Version 2
File size : 2.94 GiB
Duration : 1 h 54 min
Overall bit rate : 3 670 kb/s
Movie name : Скорпион / Scorpio (1973) from ExKinoRay
Encoded date : UTC 2016-11-03 22:32:17
Writing application : mkvmerge v7.6.0 ('Garden of Dreams') 32bit built on Feb 11 2015 00:18:47
Writing library : libebml v1.3.1 + libmatroska v1.4.2

Video
ID : 1
Format : AVC
Format/Info : Advanced Video Codec
Format profile : High@L4.1
Format settings, CABAC : Yes
Format settings, ReFrames : 13 frames
Codec ID : V_MPEG4/ISO/AVC
Duration : 1 h 54 min
Bit rate : 3 285 kb/s
Width : 1 024 pixels
Height : 554 pixels
Display aspect ratio : 1.85:1
Frame rate mode : Constant
Frame rate : 23.976 (23976/1000) FPS
Color space : YUV
Chroma subsampling : 4:2:0
Bit depth : 8 bits
Scan type : Progressive
Bits/(Pixel*Frame) : 0.242
Stream size : 2.57 GiB (88%)
Title : Enigma
Writing library : x264 core 144 r2525 40bb568
Encoding settings : cabac=1 / ref=13 / deblock=1:-2:-2 / analyse=0x3:0x113 / me=umh / subme=10 / psy=1 / psy_rd=1.00:0.06 / mixed_ref=1 / me_range=32 / chroma_me=1 / trellis=2 / 8x8dct=1 / cqm=0 / deadzone=21,11 / fast_pskip=0 / chroma_qp_offset=-3 / threads=12 / lookahead_threads=3 / sliced_threads=0 / nr=0 / decimate=0 / interlaced=0 / bluray_compat=0 / constrained_intra=0 / bframes=13 / b_pyramid=2 / b_adapt=2 / b_bias=0 / direct=3 / weightb=1 / open_gop=0 / weightp=2 / keyint=240 / keyint_min=23 / scenecut=40 / intra_refresh=0 / rc_lookahead=40 / rc=2pass / mbtree=0 / bitrate=3285 / ratetol=1.0 / qcomp=0.65 / qpmin=0 / qpmax=51 / qpstep=4 / cplxblur=20.0 / qblur=0.5 / vbv_maxrate=50000 / vbv_bufsize=62500 / nal_hrd=none / filler=0 / ip_ratio=1.40 / pb_ratio=1.30 / aq=1:1.00
Language : English
Default : Yes
Forced : No
Color range : Limited
Color primaries : BT.709
Transfer characteristics : BT.709
Matrix coefficients : BT.709

Audio #1
ID : 2
Format : AC-3
Format/Info : Audio Coding 3
Mode extension : CM (complete main)
Format settings, Endianness : Big
Codec ID : A_AC3
Duration : 1 h 54 min
Bit rate mode : Constant
Bit rate : 192 kb/s
Channel(s) : 1 channel
Channel positions : Front: C
Sampling rate : 48.0 kHz
Frame rate : 31.250 FPS (1536 spf)
Compression mode : Lossy
Stream size : 157 MiB (5%)
Title : MVO, R5
Language : Russian
Default : Yes
Forced : No

Audio #2
ID : 3
Format : AC-3
Format/Info : Audio Coding 3
Mode extension : CM (complete main)
Format settings, Endianness : Big
Codec ID : A_AC3
Duration : 1 h 54 min
Bit rate mode : Constant
Bit rate : 192 kb/s
Channel(s) : 1 channel
Channel positions : Front: C
Sampling rate : 48.0 kHz
Frame rate : 31.250 FPS (1536 spf)
Compression mode : Lossy
Stream size : 157 MiB (5%)
Language : English
Default : No
Forced : No

Text #1
ID : 4
Format : UTF-8
Codec ID : S_TEXT/UTF8
Codec ID/Info : UTF-8 Plain Text
Language : Russian
Default : No
Forced : No

Text #2
ID : 5
Format : UTF-8
Codec ID : S_TEXT/UTF8
Codec ID/Info : UTF-8 Plain Text
Title : SDH
Language : English
Default : No
Forced : No

Menu
00:00:00.000 : en:Chapter 1
00:03:24.037 : en:Chapter 2
00:09:02.416 : en:Chapter 3
00:13:41.778 : en:Chapter 4
00:20:10.750 : en:Chapter 5
00:23:40.961 : en:Chapter 6
00:27:43.242 : en:Chapter 7
00:35:58.197 : en:Chapter 8
00:38:33.184 : en:Chapter 9
00:41:43.291 : en:Chapter 10
00:48:08.719 : en:Chapter 11
00:52:20.219 : en:Chapter 12
00:55:26.530 : en:Chapter 13
01:01:50.539 : en:Chapter 14
01:06:12.134 : en:Chapter 15
01:11:19.399 : en:Chapter 16
01:14:22.622 : en:Chapter 17
01:22:34.613 : en:Chapter 18
01:25:46.805 : en:Chapter 19
01:30:30.966 : en:Chapter 20
01:35:10.287 : en:Chapter 21
01:40:46.832 : en:Chapter 22
01:44:53.743 : en:Chapter 23
01:49:29.979 : en:Chapter 24
Релиз от:

Автор релиза:



Скачать Скорпион.Scorpio.(Майкл.Уиннер).[1973.боевик.триллер.драма.BDRip-AVC].[MVO]+[Sub]x2.torrent без регистрации
Золото ЗОЛОТАЯ РАЗДАЧА! СКАЧАННОЕ НЕ ЗАСЧИТЫВАЕТСЯ! Золото
Дата: Зарегистрирован   [ Тип: внутренний ] Как тут cкачать?
MAGNET ссылка
MAGNET ссылка


Скачать .torrent

15 KB

Статус: проверено DHT
Скачан: торрент - 3 раз, раздача полностью - 1 раз
Размер: 2,94 GB
Оценка:  - (Голосов: 0)
Поблагодарили: 1
Поделиться ссылкой на эту раздачу с друзьями:
В контактеFacebookОдноклассникиTwitterLivejournalМой МирLiveinternet
 

 
Показать сообщения:    


Вы не можете начинать темы
Вы не можете отвечать на сообщения
Вы не можете редактировать свои сообщения
Вы не можете удалять свои сообщения
Вы не можете голосовать в опросах
Вы не можете прикреплять файлы к сообщениям
Вы можете скачивать файлы