Loading...
Error

/ Major Crimes ( 02) (Michael M. Robin) [2013, , , HDTVRip] DVO (DreamRecords)

 
8,37 GB   |    :  7
1  [  0 KB/s  ]  
 

[] 

/ Major Crimes


: 2013
:
:
: 00:44:00
: - [DreamRecords]
:
: Michael M. Robin

: Mary McDonnell, G. W. Bailey, Tony Denison, Michael Paul Chan, Raymond Cruz

: . - . , , .



. :
:
:
:
:
: mystery

: HDTVRip
: AVI
: XviD
: MP3
: 720x400, 1295 Kbps, 23.976 fps, 0.188 bit/pixel
: MP3, 48 kHz, 2 ch, 192 kbps

:

Format : AVI
 Format/Info : Audio Video Interleave
 File size : 450 MiB
 Duration : 42mn 0s
 Overall bit rate : 1 497 Kbps
 Writing application : VirtualDubModRus 1.5.10.2 (build 2542/release)
 Writing library : VirtualDubMod build 2542/release
Video
 ID : 0
 Format : MPEG-4 Visual
 Format profile : Advanced Simple@L5
 Format settings, BVOP : 1
 Format settings, QPel : No
 Format settings, GMC : No warppoints
 Format settings, Matrix : Default (MPEG)
 Codec ID : XVID
 Codec ID/Hint : XviD
 Duration : 42mn 0s
 Bit rate : 1 295 Kbps
 Width : 720 pixels
 Height : 400 pixels
 Display aspect ratio : 16:9
 Frame rate : 23.976 fps
 Color space : YUV
 Chroma subsampling : 4:2:0
 Bit depth : 8 bits
 Scan type : Progressive
 Compression mode : Lossy
 Bits/(Pixel*Frame) : 0.188
 Stream size : 389 MiB (87%)
 Writing library : XviD 64
Audio
 ID : 1
 Format : MPEG Audio
 Format version : Version 1
 Format profile : Layer 3
 Mode : Joint stereo
 Codec ID : 55
 Codec ID/Hint : MP3
 Duration : 41mn 59s
 Bit rate mode : Constant
 Bit rate : 192 Kbps
 Channel(s) : 2 channels
 Sampling rate : 48.0 KHz
 Compression mode : Lossy
 Stream size : 57.7 MiB (13%)
 Alignment : Aligned on interleaves
 Interleave, duration : 42 ms (1.00 video frame)
 Interleave, preload duration : 504 ms

:

! ; . , :
 (1) ,
 (2) ( ),
 (3) , .
  () ( - ), . , !
 E , , . , , .




[url=viewtopic.php?t=4468780] HDTVRip 720p[/url]


19 !


"!"





...Major.Crimes.(.02).(Michael.M.Robin).[2013...HDTVRip].DVO.(DreamRecords).torrent
  ! ! 
:   [ : ] c?
MAGNET
MAGNET


.torrent

23 KB

: DHT
: - 7 , - 2
: 8,37 GB
- (: 0)
: 1
:
 FacebookTwitterLivejournal Liveinternet
 

 
: