Loading...
Error

Скачать Особо Тяжкие Преступления / Major Crimes (3x05-14 из 19) (Дэвид МакУиртер и др.) [2014, детектив, WEB-DLRip] [VO (DexterTV)] торрент без регистрации

 
Статистика раздачи
Размер:  4,77 GB   |    Скачан:  3 раза
Сидов:  1  [  0 KB/s  ]  
 
Автор Сообщение

МихаНЕзатор

[] 

Особо Тяжкие Преступления / Major Crimes


Год выпуска: 2014
Страна: США
Жанр: детектив
Продолжительность: 00:44:00
Режиссёр: Дэвид МакУиртер, Стив Робин, Мишель М. Робин

В ролях: Дж. У. Бейли, Грэхэм Патрик Мартин, Мэри МакДоннелл, Энтони Джон Дэнисон, Майкл Пол Чан, Рэймонд Крус, Филлип П. Кин, Кирран Джованни, Джонатан Дель Арко, Рэнсфорд Доэрти

Описание: Продолжение сериала Ищейка. После увольнения Бренды Ли Джонсон руководство Отделом Ососбо Опасных преступлений полиции Лос-Анджелеса берет в свои руки капитан Рэйдор. Однако ей предстоит работать в команде, котроая заранее испытывает к ней антипатию, ведь антипатию к ней всегда испытывала шеф Джонсон.



Перевод: Contranslate
Озвучка: Любительский одноголосый (DexterTV)
Монтаж: Ultra_Pavel

Качество: WEB-DLRip
Формат: AVI
Видео: 720x400, 1360 Kbps, 23.976 fps, 0.283 bit/pixel
Аудио: MP3, 48 kHz, 2 ch, 192 kbps
Субтитры: отсутствуют

АНОНСЫ ПОПУЛЯРНЫХ РАЗДАЧ
Video
ID : 0
Format : MPEG-4 Visual
Format profile : Advanced Simple@L5
Format settings, BVOP : 1
Format settings, QPel : No
Format settings, GMC : No warppoints
Format settings, Matrix : Default (MPEG)
Codec ID : XVID
Codec ID/Hint : XviD
Duration : 42mn 10s
Bit rate : 1 360 Kbps
Width : 720 pixels
Height : 400 pixels
Display aspect ratio : 16:9
Frame rate : 23.976 fps
Color space : YUV
Chroma subsampling : 4:2:0
Bit depth : 8 bits
Scan type : Progressive
Compression mode : Lossy
Bits/(Pixel*Frame) : 0.197
Stream size : 410 MiB (84%)
Writing library : XviD 1.2.1 (UTC 2008-12-04)
Audio
ID : 1
Format : MPEG Audio
Format version : Version 1
Format profile : Layer 3
Codec ID : 55
Codec ID/Hint : MP3
Duration : 42mn 10s
Bit rate mode : Constant
Bit rate : 256 Kbps
Channel(s) : 2 channels
Sampling rate : 48.0 KHz
Compression mode : Lossy
Stream size : 77.2 MiB (16%)
Alignment : Split accross interleaves
Interleave, duration : 42 ms (1.00 video frame)
Interleave, preload duratio : 500 ms



Скачать Особо.Тяжкие.Преступления.Major.Crimes.(3x05-14.из.19).(Дэвид.МакУиртер.и.др.).[2014.детектив.WEB-DLRip].[VO.(DexterTV)].torrent без регистрации
Золото ЗОЛОТАЯ РАЗДАЧА! СКАЧАННОЕ НЕ ЗАСЧИТЫВАЕТСЯ! Золото
Дата: Зарегистрирован   [ Тип: внутренний ] Как тут cкачать?
MAGNET ссылка
MAGNET ссылка


Скачать .torrent

13 KB

Статус: проверено DHT
Скачан: торрент - 3 раз, раздача полностью - 0 раз
Размер: 4,77 GB
Оценка:  - (Голосов: 0)
Поблагодарили: 0
Поделиться ссылкой на эту раздачу с друзьями:
В контактеFacebookОдноклассникиTwitterLivejournalМой МирLiveinternet
 

 
Показать сообщения:    


Вы не можете начинать темы
Вы не можете отвечать на сообщения
Вы не можете редактировать свои сообщения
Вы не можете удалять свои сообщения
Вы не можете голосовать в опросах
Вы не можете прикреплять файлы к сообщениям
Вы можете скачивать файлы