Loading...
Error

Скачать Особо Тяжкие Преступления / Major Crimes (сезон 04) (Дэвид МакУиртер и др.) [2015, детектив, WEB-DLRip] [VO (DexterTV)] торрент без регистрации

 
Статистика раздачи
Размер:  11,46 GB   |    Скачан:  3 раза
Сидов:  1  [  0 KB/s  ]  
 
Автор Сообщение

МихаНЕзатор

[] 

Особо Тяжкие Преступления / Major Crimes


Год выпуска: 2015
Страна: США
Жанр: детектив
Продолжительность: 00:44:00
Перевод: Любительский (одноголосый закадровый) (DexterTV)
Режиссёр: Дэвид МакУиртер, Стив Робин, Мишель М. Робин

В ролях: Дж. У. Бейли, Грэхэм Патрик Мартин, Мэри МакДоннелл, Энтони Джон Дэнисон, Майкл Пол Чан, Рэймонд Крус, Филлип П. Кин, Кирран Джованни, Джонатан Дель Арко, Рэнсфорд Доэрти

Описание: Продолжение сериала Ищейка. После увольнения Бренды Ли Джонсон руководство Отделом Ососбо Опасных преступлений полиции Лос-Анджелеса берет в свои руки капитан Рэйдор. Однако ей предстоит работать в команде, которая заранее испытывает к ней антипатию, ведь антипатию к ней всегда испытывала шеф Джонсон.



Редактор текста: Марина Ганеева
Текст читал: Александр Якименко
Монтаж видео и сведения звука: Сергей Лаптев

Качество: WEB-DLRip
Формат: AVI
Видео: 720x400 (16:9), 1360 Kbps, 23.976 fps, 0.283 bit/pixel
Аудио: MP3, 48 kHz, 2 ch, 192 kbps - rus
Субтитры: отсутствуют

АНОНСЫ ПОПУЛЯРНЫХ РАЗДАЧ

1. A Rose Is a Rose
2. Roadtrip
3. Photofinish
4. New Policeman
5. Overdrill
6. Next Round
7. Targets of Opportunity
8. A Finish Police
9. Murders
10. Family Tradegy
Format : AVI
Format/Info : Audio Video Interleave
File size : 520 MiB
Duration : 42mn 8s
Overall bit rate : 1 726 Kbps
Writing application : VirtualDubMod 1.5.10.3 | www.virtualdub-fr.org || (build 2550/release)
Writing library : VirtualDub build 35576/release
Video
ID : 0
Format : MPEG-4 Visual
Format profile : Advanced Simple@L5
Format settings, BVOP : 1
Format settings, QPel : No
Format settings, GMC : No warppoints
Format settings, Matrix : Default (MPEG)
Codec ID : XVID
Codec ID/Hint : XviD
Duration : 42mn 8s
Bit rate : 1 461 Kbps
Width : 720 pixels
Height : 400 pixels
Display aspect ratio : 16:9
Frame rate : 23.976 fps
Color space : YUV
Chroma subsampling : 4:2:0
Bit depth : 8 bits
Scan type : Progressive
Compression mode : Lossy
Bits/(Pixel*Frame) : 0.212
Stream size : 440 MiB (85%)
Writing library : XviD 1.2.1 (UTC 2008-12-04)
Audio
ID : 1
Format : MPEG Audio
Format version : Version 1
Format profile : Layer 3
Codec ID : 55
Codec ID/Hint : MP3
Duration : 42mn 8s
Bit rate mode : Constant
Bit rate : 256 Kbps
Channel(s) : 2 channels
Sampling rate : 48.0 KHz
Compression mode : Lossy
Stream size : 77.2 MiB (15%)
Alignment : Split accross interleaves
Interleave, duration : 42 ms (1.00 video frame)
Interleave, preload duratio : 500 ms
Внимание! Раздача ведётся путём добавления новых серий; при каждом добавлении создаётся новый торрент. Чтобы начать докачку новой серии, пользователям необходимо сделать следующее:
(1) остановить скачивание,
(2) удалить старый торрент у себя из клиента (старые серии удалять не надо),
(3) скачать новый торрент и запустить его у себя в клиенте вместо старого, при этом указать клиенту путь в старую папку куда и должно происходить скачивание новых серий.
Ваш клиент при этом должен произвести хеширование (проверку) старой папки (если не производит сам - помогите ему сделать это), и будет докачивать только те серии которых у вас ещё нет. Старые серии при этом не удаляются, а продолжают раздаваться!
Eсли вы уже удалили старые серии, то предотвратить повторную закачку старых серий можно, отжав галочку в соответствующих местах при запуске нового торрента. По возможности, желательно не удалять старые серии как можно дольше чтобы релизёр не столько продолжал раздавать старые серии, а смог сконцентрироваться на новых.



Скачать Особо.Тяжкие.Преступления.Major.Crimes.(сезон.04).(Дэвид.МакУиртер.и.др.).[2015.детектив.WEB-DLRip].[VO.(DexterTV)].torrent без регистрации
Золото ЗОЛОТАЯ РАЗДАЧА! СКАЧАННОЕ НЕ ЗАСЧИТЫВАЕТСЯ! Золото
Дата: Зарегистрирован   [ Тип: внутренний ] Как тут cкачать?
MAGNET ссылка
MAGNET ссылка


Скачать .torrent

31 KB

Статус: проверено DHT
Скачан: торрент - 3 раз, раздача полностью - 2 раз
Размер: 11,46 GB
Оценка:  - (Голосов: 0)
Поблагодарили: 0
Поделиться ссылкой на эту раздачу с друзьями:
В контактеFacebookОдноклассникиTwitterLivejournalМой МирLiveinternet
 

 
Показать сообщения:    


Вы не можете начинать темы
Вы не можете отвечать на сообщения
Вы не можете редактировать свои сообщения
Вы не можете удалять свои сообщения
Вы не можете голосовать в опросах
Вы не можете прикреплять файлы к сообщениям
Вы можете скачивать файлы