Loading...
Error

Скачать Супермакс / Supermax (01х01-08 из 12) (Жозе Алваренга мл., Луис Энрике Кампос) [2016, приключения, ужасы, триллер, HDTVRip] [DVO (Avebrasil)] торрент без регистрации

 
Статистика раздачи
Размер:  4,57 GB   |    Скачан:  15 раз
Сидов:  1  [  0 KB/s  ]  
 
Автор Сообщение

МихаНЕзатор

[] 

Супермакс / Supermax


Страна: Бразилия
Производство: Central Globo de Produção
Год выпуска: 2016
Сезон: 1
Жанр: приключения, ужасы, триллер
Режиссер: Жозе Алваренга мл., Луис Энрике Кампос
Авторы сценария: Жозе Алваренга мл., Маркаль Акино, Фернандо Бонасси, Каролина Котшо

В ролях: Равел Андради, Бруно Белармино, Педро Биал, Эром Кордейру, Вания де Брито, Харильдо Деда, Руй Рикардо Диас, Клео Пирес, Ф. Гугли

Описание: Двеннадцать человек отобраны для уникального реалити-шоу: 3 месяца в тюрьме супермаксимальной безопасности посреди лесов Амазонии и никакого контакта с внешним миром. Главный приз — 2 миллиона реалов. Всех участников объединяет то, что у них были или есть проблемы с правосудием. Однако со временем, казалось бы, совершенно обыкновенная телепередача превращается в нечто более жуткое и пугающее...

Дата премьеры (мир): 16 сентября 2016



Продолжительность: х ~00:40:00
Перевод: Любительский (двухголосый, закадровый) | Avebrasil
Субтитры: нет

Качество: HDTVRip
Формат: AVI
Видео кодек: XviD
Аудио кодек: AC3
Видео: 720х400 (16:9), 29.970 fps, XviD build 73 ~1 999 kbps avg
Аудио: 48.0 kHz, AC3 Dolby Digital, 2/0 (L,R) ch, ~192 kbps

АНОНСЫ ПОПУЛЯРНЫХ РАЗДАЧ


Торрент обновлён, добавлена 8-я серия!
General
Полное имя : Супер Макс - 01.avi
Формат : AVI
Формат/Информация : Audio Video Interleave
Размер файла : 660 Мбайт
Продолжительность : 41 м.
Общий поток : 2203 Кбит/сек
Программа кодирования : VirtualDubMod 1.5.10.3 | (build 2550/release)
Библиотека кодирования : VirtualDubMod build 2550/release

Видео
Идентификатор : 0
Формат : MPEG-4 Visual
Профиль формата : Advanced Simple@L5
Параметр BVOP формата : 2
Параметр QPel формата : Нет
Параметр GMC формата : Без точки перехода
Параметр матрицы формата : Default (MPEG)
Режим смешивания : Сжатый битовый поток
Идентификатор кодека : XVID
Идентификатор кодека/Подсказка : XviD
Продолжительность : 41 м.
Битрейт : 1999 Кбит/сек
Ширина : 720 пикселей
Высота : 400 пикселей
Соотношение сторон : 16:9
Частота кадров : 29,970 (29970/1000) кадров/сек
Цветовое пространство : YUV
Субдискретизация насыщенности : 4:2:0
Битовая глубина : 8 бит
Тип развёртки : Прогрессивная
Метод сжатия : С потерями
Бит/(Пиксели*Кадры) : 0.232
Размер потока : 598 Мбайт (91%)
Библиотека кодирования : XviD 73

Аудио
Идентификатор : 1
Формат : AC-3
Формат/Информация : Audio Coding 3
Расширение режима : CM (complete main)
Параметр Endianness формата : Big
Идентификатор кодека : 2000
Продолжительность : 41 м.
Вид битрейта : Постоянный
Битрейт : 192 Кбит/сек
Каналы : 2 канала
Расположение каналов : Front: L R
Частота : 48,0 КГц
Частота кадров : 31,250 кадров/сек (1536 spf)
Метод сжатия : С потерями
Размер потока : 57,5 Мбайт (9%)
Выравнивание : Разделение по промежуткам
Продолжительность промежутка : 33 мс. (1,00 видеокадр)
Время предзагрузки промежутка : 500 мс.



Скачать Супермакс.Supermax.(01х01-08.из.12).(Жозе.Алваренга.мл.Луис.Энрике.Кампос).[2016.приключения.ужасы.триллер.HDTVRip].[DVO.(Avebrasil)].torrent без регистрации
Золото ЗОЛОТАЯ РАЗДАЧА! СКАЧАННОЕ НЕ ЗАСЧИТЫВАЕТСЯ! Золото
Дата: Зарегистрирован   [ Тип: внутренний ] Как тут cкачать?
MAGNET ссылка
MAGNET ссылка


Скачать .torrent

7 KB

Статус: проверено DHT
Скачан: торрент - 15 раз, раздача полностью - 3 раз
Размер: 4,57 GB
Оценка:  - (Голосов: 0)
Поблагодарили: 0
Поделиться ссылкой на эту раздачу с друзьями:
В контактеFacebookОдноклассникиTwitterLivejournalМой МирLiveinternet
 

 
Показать сообщения:    


Вы не можете начинать темы
Вы не можете отвечать на сообщения
Вы не можете редактировать свои сообщения
Вы не можете удалять свои сообщения
Вы не можете голосовать в опросах
Вы не можете прикреплять файлы к сообщениям
Вы можете скачивать файлы