Loading...
Error

Скачать Чарли Валентин / Charlie Valentine (Джесси Джонсон) [2009, триллер, драма, криминал, HDRip] [DVO] торрент без регистрации

 
Статистика раздачи
Размер:  746 MB   |    Скачан:  4 раза
Сидов:  1  [  0 KB/s  ]  
 
Автор Сообщение

Marsianka

[] 

Информация о фильме
Название: Чарли Валентин
Оригинальное название: Charlie Valentine
Год выхода: 2009
Жанр: триллер, драма, криминал
Режиссер: Джесси Джонсон
В ролях: Рэймонд Дж. Бэрри, Майкл Уэтерли, Джеймс Руссо, Том Беренджер, Стивен Бауэр, Максин Банс, Валери Диллман, Кит Дэвид, Доминик Ванденберг, Роберт Бланш, Кевин Скотт Аллен, Рэнди Краудер, Гленн Таранто, Энтони Витале, Джерри Тримбл, Маттиас Хьюз, Роберт Дилл, Мелвин Эбстон, Элеонора Барна, Джулианна Бьянчи, Мэдисон Бауэр, Джон Бренч, Лиза Катара

О фильме: Чарли Вэлентайн был гангстером, стрелком, бабником и довольно неплохим поваром. Он был также самым опасным, безответственным негодяем, которого вы только можете себе представить.



Страна: США
Студия: American Media Group, Gorilla Pictures
Продолжительность: 01:36:23
Перевод: Любительский (двухголосый, закадровый)
Субтитры: Нет

Семпл

Файл
Кодек: XviD
Качество: HDRip
Видео: 720x272 (2.65:1), 23.976 fps, XviD build 73 ~895 kbps avg, 0.19 bit/pixel
Звук: 48 kHz, MPEG Layer 3, 2 ch, ~192.00 kbps avg
Общее
Полное имя : Charlie.Valentine.2009.L2.HDRip.ot.Portablius.avi
Формат : AVI
Формат/Информация : Audio Video Interleave
Размер файла : 746 Мбайт
Продолжительность : 1 ч. 35 м.
Общий поток : 1097 Кбит/сек
Программа кодирования : VirtualDubMod 1.5.10.3 | www.virtualdub-fr.org || (build 2550/release)
Библиотека кодирования : VirtualDubMod build 2550/release

Видео
Идентификатор : 0
Формат : MPEG-4 Visual
Профиль формата : Advanced Simple@L5
Параметр BVOP формата : 1
Параметр QPel формата : Нет
Параметр GMC формата : Без точки перехода
Параметр матрицы формата : Выборочная
Идентификатор кодека : XVID
Идентификатор кодека/Подсказка : XviD
Продолжительность : 1 ч. 35 м.
Битрейт : 895 Кбит/сек
Ширина : 720 пикселей
Высота : 272 пикселя
Соотношение сторон : 2,647
Частота кадров : 23,976 (23976/1000) кадра/сек
Цветовое пространство : YUV
Субдискретизация насыщенности : 4:2:0
Битовая глубина : 8 бит
Тип развёртки : Прогрессивная
Метод сжатия : С потерями
Бит/(Пиксели*Кадры) : 0.191
Размер потока : 609 Мбайт (82%)
Библиотека кодирования : XviD 73

Аудио
Идентификатор : 1
Формат : MPEG Audio
Версия формата : Version 1
Профиль формата : Layer 3
Режим : Joint stereo
Расширение режима : MS Stereo
Идентификатор кодека : 55
Идентификатор кодека/Подсказка : MP3
Продолжительность : 1 ч. 35 м.
Вид битрейта : Постоянный
Битрейт : 192 Кбит/сек
Каналы : 2 канала
Частота : 48,0 КГц
Метод сжатия : С потерями
Размер потока : 131 Мбайт (18%)
Выравнивание : Соединение по промежуткам
Продолжительность промежутка : 42 мс. (1,00 видеокадр)
Время предзагрузки промежутка : 504 мс.
Библиотека кодирования : LAME3.99r
Настройки программы : -m j -V 4 -q 2 -lowpass 18.6 -b 192



Скачать Чарли.Валентин.Charlie.Valentine.(Джесси.Джонсон).[2009.триллер.драма.криминал.HDRip].[DVO].torrent без регистрации
Золото ЗОЛОТАЯ РАЗДАЧА! СКАЧАННОЕ НЕ ЗАСЧИТЫВАЕТСЯ! Золото
Дата: Зарегистрирован   [ Тип: внутренний ] Как тут cкачать?
MAGNET ссылка
MAGNET ссылка


Скачать .torrent

15 KB

Статус: проверено DHT
Скачан: торрент - 4 раз, раздача полностью - 1 раз
Размер: 746 MB
Оценка:  - (Голосов: 0)
Поблагодарили: 0
Поделиться ссылкой на эту раздачу с друзьями:
В контактеFacebookОдноклассникиTwitterLivejournalМой МирLiveinternet
 

 
Показать сообщения:    


Вы не можете начинать темы
Вы не можете отвечать на сообщения
Вы не можете редактировать свои сообщения
Вы не можете удалять свои сообщения
Вы не можете голосовать в опросах
Вы не можете прикреплять файлы к сообщениям
Вы можете скачивать файлы