Loading...
Error

Скачать Готэм / Gotham (Сезон 03, серия 01-11 из 22) [2016, триллер, драма, криминал, WEBRip] [1080p] [MVO] (LostFilm) торрент без регистрации

 
Статистика раздачи
Размер:  36,84 GB   |    Скачан:  21 раз
Сидов:  1  [  0 KB/s  ]  
 
Автор Сообщение

leon030982

[] 


Готэм

Информация о фильме:
✦ Название: Готэм
✦ Оригинальное название: Gotham
✦ Год выхода: 2016
✦ Жанр: триллер, драма, криминал
✦ Страна: США
✦ Продолжительность: ~ 00:49:00 - серия
✦ Перевод: Профессиональный (многоголосый закадровый) [LostFilm]

✦Субтитры: English

✦ Режиссер: Дэнни Кэннон

✦ В ролях: Бен МакКензи, Шон Пертуи, Робин Тейлор, Забрина Гевара, Эрин Ричардс, Донал Лог, Джада Пинкетт Смит, Дэвид Мазоуз, Камрен Бикондова, Кори Майкл Смит и др.



Новый сотрудник департамента полиции Готэма, детектив Джеймс Гордон и его напарник Харви Баллок назначаются начальником отдела полиции Готэма по расследованию убийств Сарой Эссен на самое громкое дело последних лет - убийство Томаса и Марты Уэйн. Во время расследования Гордон знакомится с сыном убитых - Брюсом Уэйном, который после смерти родителей находится под опекой своего дворецкого Альфреда. Одновременно с расследованием убийства Гордону приходится бороться с местным главарем банды Фишем Муни, а также с будущими злодеями Готэма: Селиной Кайл и Освальдом Кобблпотом. В итоге, Гордон фокусируется на дружбе с молодым Брюсом, чтобы в будущем сделать из маленького мальчика Тёмного рыцаря - защитника Готэма.



Релиз --

✦ Качество: WEBRip 1080p
✦ Формат: MKV
✦ Видео кодек: AVC
✦ Аудио кодек: AC3
✦ Видео: MPEG-4 AVC, ~ 9000 Кбит/с, 1920x1080, 23.976 fps
✦ Аудио: 48 kHz, AC3, 3/2 (L,C,R,l,r) + LFE ch, ~640.00 kbps avg |LostFilm|
✦ Аудио: 48 kHz, E-AC3, 3/2 (L,C,R,l,r) + LFE ch, ~640.00 kbps avg |English|

Торент обновлен! Добавлена 11-я серия
Внимание! Раздача ведётся путём добавления новых серий; при каждом добавлении создётся новый торрент. Чтобы начать докачку новой серии, пользователям необходимо сделать следующее: (1) остановить скачивание, (2) удалить старый торрент у себя из клиента (старые серии удалять не надо), (3) скачать новый торрент и запустить его у себя в клиенте вместо старого, при этом указать клиенту путь в старую папку куда и должно происходить скачивание новых серий.
Ваш клиент при этом должен произвести хеширование (проверку) старой папки (если не производит сам - помогите ему сделать это), и будет докачивать только те серии которых у вас ещё нет. Старые серии при этом не удаляются, а продолжают раздаваться!
Eсли вы уже удалили старые серии, то предотвратить повторную закачку старых серий можно, отжав галочку в соответсвующих местах при запуске нового торрента.
General
Unique ID : 226514338673788046034925336547231868106 (0xAA6913240723F65A8DFA33281B7924CA)
Complete name : E:\Gotham.S03.1080p.WEBRip.Rus.Eng.HDCLUB\Gotham.S03E01.Better.to.Reign.in.Hell..1080p.WEBRip.Rus.Eng.mkv
Format : Matroska
Format version : Version 4 / Version 2
File size : 3.17 GiB
Duration : 44mn 7
Overall bit rate : 10.3 Mbps
Movie name : Готэм / Gotham (2016) S03E01 Лучше править в аду... / Better to Reign in Hell...
Encoded date : UTC 2016-10-12 16:08:45
Writing application : mkvmerge v9.4.2 ('So High') 64bit
Writing library : libebml v1.3.4 + libmatroska v1.4.5
Attachements : cover.jpg

Video
ID : 1
Format : AVC
Format/Info : Advanced Video Codec
Format profile : High@L4.1
Format settings, CABAC : Yes
Format settings, ReFrames : 4 frames
Codec ID : V_MPEG4/ISO/AVC
Duration : 44mn 7s
Bit rate : 8 802 Kbps
Width : 1 920 pixels
Height : 1 080 pixels
Display aspect ratio : 16:9
Frame rate mode : Constant
Frame rate : 23.976 fps
Color space : YUV
Chroma subsampling : 4:2:0
Bit depth : 8 bits
Scan type : Progressive
Bits/(Pixel*Frame) : 0.177
Stream size : 2.71 GiB (86%)
Title : MPEG-4 AVC @ ~9000 Kbps
Writing library : x264 core 144 r2525 40bb568
Encoding settings : cabac=1 / ref=4 / deblock=1:-3:-3 / analyse=0x3:0x133 / me=umh / subme=10 / psy=1 / psy_rd=1.00:0.00 / mixed_ref=1 / me_range=48 / chroma_me=1 / trellis=2 / 8x8dct=1 / cqm=0 / deadzone=21,11 / fast_pskip=1 / chroma_qp_offset=-2 / threads=6 / lookahead_threads=1 / sliced_threads=0 / nr=0 / decimate=1 / interlaced=0 / bluray_compat=0 / constrained_intra=0 / bframes=8 / b_pyramid=2 / b_adapt=2 / b_bias=0 / direct=3 / weightb=1 / open_gop=0 / weightp=2 / keyint=250 / keyint_min=23 / scenecut=40 / intra_refresh=0 / rc=crf / mbtree=0 / crf=17.0 / qcomp=0.60 / qpmin=0 / qpmax=69 / qpstep=4 / ip_ratio=1.30 / pb_ratio=1.20 / aq=3:0.80
Language : English
Default : Yes
Forced : No

Audio #1
ID : 2
Format : AC-3
Format/Info : Audio Coding 3
Mode extension : CM (complete main)
Format settings, Endianness : Big
Codec ID : A_AC3
Duration : 44mn 7s
Bit rate mode : Constant
Bit rate : 640 Kbps
Channel(s) : 6 channels
Channel positions : Front: L C R, Side: L R, LFE
Sampling rate : 48.0 KHz
Compression mode : Lossy
Stream size : 202 MiB (6%)
Title : AC3 5.1 @ 640 Kbps - Многоголосый закадровый, LostFilm
Language : Russian
Default : Yes
Forced : No

Audio #2
ID : 3
Format : E-AC-3
Format/Info : Audio Coding 3
Format settings, Endianness : Big
Codec ID : A_EAC3
Duration : 44mn 7s
Bit rate mode : Constant
Bit rate : 640 Kbps
Channel(s) : 6 channels
Channel positions : Front: L C R, Side: L R, LFE
Sampling rate : 48.0 KHz
Compression mode : Lossy
Stream size : 202 MiB (6%)
Title : E-AC3 5.1 @ 640 Kbps
Language : English
Default : No
Forced : No

Text #1
ID : 4
Format : UTF-8
Codec ID : S_TEXT/UTF8
Codec ID/Info : UTF-8 Plain Text
Title : SRT - Full
Language : English
Default : No
Forced : No

Text #2
ID : 5
Format : UTF-8
Codec ID : S_TEXT/UTF8
Codec ID/Info : UTF-8 Plain Text
Title : SRT - Full SDH
Language : English
Default : No
Forced : No

Menu
00:00:00.000 : en:Previously On
00:00:49.000 : en:Gordon goes to see Lee
00:01:38.000 : en:Six months later
00:03:28.000 : en:Title Sequence
00:03:34.000 : en:GCPD holds a press conference
00:09:15.000 : en:Oswald and Butch go see the girls
00:12:28.000 : en:Break
00:12:29.000 : en:Bruce comes home
00:13:30.000 : en:Valerie visits Gordon
00:15:17.000 : en:Penguins eat fish
00:17:38.000 : en:Getting the drugs
00:21:13.000 : en:Break
00:21:15.000 : en:Bruce presents his case
00:23:53.000 : en:Do it quietly
00:24:18.000 : en:Bullied
00:25:44.000 : en:Selina feeds a story
00:28:29.000 : en:Break
00:28:30.000 : en:Bait
00:32:38.000 : en:Break
00:32:40.000 : en:Gordon gets lectured
00:34:37.000 : en:Ivy gets confronted
00:35:30.000 : en:No time for this
00:37:08.000 : en:Fix me
00:39:10.000 : en:Break
00:39:12.000 : en:Ivy is caught
00:40:42.000 : en:Coming to terms
00:41:30.000 : en:New security system
00:43:29.000 : en:Break
00:43:30.000 : en:End Credits




Скачать Готэм.Gotham.(Сезон.03.серия.01-11.из.22).[2016.триллер.драма.криминал.WEBRip].[1080p].[MVO].(LostFilm).torrent без регистрации
Золото ЗОЛОТАЯ РАЗДАЧА! СКАЧАННОЕ НЕ ЗАСЧИТЫВАЕТСЯ! Золото
Дата: Зарегистрирован   [ Тип: внутренний ] Как тут cкачать?
MAGNET ссылка
MAGNET ссылка


Скачать .torrent

186 KB

Статус: проверено DHT
Скачан: торрент - 21 раз, раздача полностью - 0 раз
Размер: 36,84 GB
Оценка:  - (Голосов: 0)
Поблагодарили: 0
Поделиться ссылкой на эту раздачу с друзьями:
В контактеFacebookОдноклассникиTwitterLivejournalМой МирLiveinternet
 

 
Показать сообщения:    


Вы не можете начинать темы
Вы не можете отвечать на сообщения
Вы не можете редактировать свои сообщения
Вы не можете удалять свои сообщения
Вы не можете голосовать в опросах
Вы не можете прикреплять файлы к сообщениям
Вы можете скачивать файлы