Loading...
Error

Скачать Логово льва / De Leeuwenkuil (сезон 01) (Диде ин'т Вельд) [2013, семейный, HDTVRip] [1080p] [MVO] торрент без регистрации

 
Статистика раздачи
Размер:  9,1 GB   |    Скачан:  1 раз
Сидов:  1  [  0 KB/s  ]  
 
Автор Сообщение

МихаНЕзатор

[] 

Информация о фильме
Название: Логово льва
Оригинальное название: De Leeuwenkuil
Год выхода: 2013
Жанр: семейный
Режиссер: Диде ин'т Вельд

В ролях: Рэдмар Зигерч, Коен Доббелаер, Лучиано Хиват, Юна де Льё, Тесс Зигерч, Лике Антонисен, Михаэль де Йонг, Херо Мюллер, Эд-Жаст Боуманн, Айко Беемстербоер

О фильме: Как прекрасно должно быть жить в зоопарке? Не об этом ли мечтает каждый ребенок? Для Даниэля и Сюзины это реальность, так как директор зоопарка их отец. Давным-давно дедушка Даниэля и Сюзины построил деревянный дом в самом потаённом уголке зоопарка. Этот дом, называемый "Логовом льва", сейчас находится во владении Даниэля и Сюзины. Он является местом для игр и развлечений, а также местом, где Даниэль рисует свои комиксы про Человека-пеликана, обладающего безграничной силой и недюжинными возможностями, о которых мальчишка может только мечтать. Для наших маленьких героев зоопарк - это место, где приключения ожидают их на каждом шагу.



Производство: Нидерланды / Johan Nijenhuis & Co
Продолжительность: 10 x ~00:24:00
Перевод: профессиональный (многолосый закадровый)

Файл
Качество: HDTVRip 1080p
Формат: MKV
Видео: MPEG-4 AVC, 1920x1080 (16:9), 25.000 fps, 5000 kbps, 0.096 bit/pixel
Аудио #1: русский, AC3 2.0, 48 kHz, 192 kbps
Аудио #2: голландский, AC3 2.0, 48 kHz, 192 kbps

АНОНСЫ ПОПУЛЯРНЫХ РАЗДАЧ
Формат : Matroska
Версия формата : Version 4 / Version 2
Размер файла : 894 Мбайт
Продолжительность : 23 м.
Режим общего битрейта : Постоянный
Общий поток : 5383 Кбит/сек
Дата кодирования : UTC 2016-10-25 19:41:42
Программа кодирования : mkvmerge v7.9.0 ('Birds') 64bit
Библиотека кодирования : libebml v1.3.1 + libmatroska v1.4.2

Видео
Идентификатор : 1
Формат : AVC
Формат/Информация : Advanced Video Codec
Профиль формата : High@L4.1
Параметр CABAC формата : Да
Параметр ReFrames формата : 3 кадра
Идентификатор кодека : V_MPEG4/ISO/AVC
Продолжительность : 23 м.
Вид битрейта : Постоянный
Битрейт : 5000 Кбит/сек
Ширина : 1920 пикселей
Высота : 1080 пикселей
Соотношение сторон : 16:9
Режим частоты кадров : Постоянный
Частота кадров : 25,000 кадров/сек
Стандарт вещания : PAL
Цветовое пространство : YUV
Субдискретизация насыщенности : 4:2:0
Битовая глубина : 8 бит
Тип развёртки : Прогрессивная
Бит/(Пиксели*Кадры) : 0.096
Размер потока : 812 Мбайт (91%)
Default : Да
Forced : Нет
Цветовой диапазон : Limited
Основные цвета : BT.709
Характеристики трансфера : BT.709
Коэффициенты матрицы : BT.709

Аудио #1
Идентификатор : 2
Формат : AC-3
Формат/Информация : Audio Coding 3
Расширение режима : CM (complete main)
Параметр Endianness формата : Big
Идентификатор кодека : A_AC3
Продолжительность : 23 м.
Вид битрейта : Постоянный
Битрейт : 192 Кбит/сек
Каналы : 2 канала
Расположение каналов : Front: L R
Частота : 48,0 КГц
Метод сжатия : С потерями
Размер потока : 31,9 Мбайт (4%)
Язык : Russian
Default : Да
Forced : Нет

Аудио #2
Идентификатор : 3
Формат : AC-3
Формат/Информация : Audio Coding 3
Расширение режима : CM (complete main)
Параметр Endianness формата : Big
Идентификатор кодека : A_AC3
Продолжительность : 23 м.
Вид битрейта : Постоянный
Битрейт : 192 Кбит/сек
Каналы : 2 канала
Расположение каналов : Front: L R
Частота : 48,0 КГц
Метод сжатия : С потерями
Размер потока : 31,9 Мбайт (4%)
Язык : Dutch
Default : Нет
Forced : Нет



Скачать Логово.льва.De.Leeuwenkuil.(сезон.01).(Диде.ин'т.Вельд).[2013.семейный.HDTVRip].[1080p].[MVO].torrent без регистрации
Золото ЗОЛОТАЯ РАЗДАЧА! СКАЧАННОЕ НЕ ЗАСЧИТЫВАЕТСЯ! Золото
Дата: Зарегистрирован   [ Тип: внутренний ] Как тут cкачать?
MAGNET ссылка
MAGNET ссылка


Скачать .torrent

24 KB

Статус: проверено DHT
Скачан: торрент - 1 раз, раздача полностью - 0 раз
Размер: 9,1 GB
Оценка:  - (Голосов: 0)
Поблагодарили: 0
Поделиться ссылкой на эту раздачу с друзьями:
В контактеFacebookОдноклассникиTwitterLivejournalМой МирLiveinternet
 

 
Показать сообщения:    


Вы не можете начинать темы
Вы не можете отвечать на сообщения
Вы не можете редактировать свои сообщения
Вы не можете удалять свои сообщения
Вы не можете голосовать в опросах
Вы не можете прикреплять файлы к сообщениям
Вы можете скачивать файлы