Loading...
Error

Скачать Закон и порядок: Специальный Корпус / Law and order: Special Victims Unit (Сезон 12) (Arthur W. Forney) [2010, детектив, драма, триллер, WEB-DLRip] [MVO (СТС)]+[Original] торрент без регистрации

 
Статистика раздачи
Размер:  12,87 GB   |    Скачан:  3 раза
Сидов:  1  [  0 KB/s  ]  
 
Автор Сообщение

МихаНЕзатор

[] 

Закон и порядок: Специальный Корпус / Law and order: Special Victims Unit


Год выпуска: 2010
Страна: США
Жанр: Детектив, драма, триллер
Продолжительность: 00:43:00
Перевод: Профессиональный (многоголосый закадровый) СТС
Режиссёр: Arthur W. Forney

В ролях: Маришка Харгитей, Крис Мелони, Ричард Белцер, Айс-Ти, Тамара Туни, Дэнн Флорек

Описание: В системе судопроизводства преступления на сексуальной почве считаются особенно тяжкими. В Нью-Йорке подобные преступления расследуют детективы элитного подразделения, известного как Особый отдел. Это рассказ о них.



Качество: WEB-DLRip
Формат: AVI
Видео: MPEG4, DivX 5, 720x400 (16:9), 23.976 fps, 1 434 Kbps (0.208 bit/pixel)
Аудио: AC-3, 48.0 KHz, 2 ch, 192 Kbps, CBR - русский
Аудио 2: AC-3, 48.0 KHz, 2 ch, 192 Kbps, CBR - английский
Субтитры: нет

АНОНСЫ ПОПУЛЯРНЫХ РАЗДАЧ
Общее
Полное имя : K:\12x01 - Locum.avi
Формат : AVI
Формат/Информация : Audio Video Interleave
Размер файла : 550 Мбайт
Продолжительность : 41 м.
Общий поток : 1833 Кбит/сек
Название фильма : Закон и порядок: Специальный Корпус. Сезон 12 / Law and Order: Special Victims Unit. Season 12 (2010)
Программа кодирования : VirtualDubMod 1.5.10.2 (build 2540/release)
Библиотека кодирования : VirtualDubMod build 2540/release
Авторское право : miha2154
Видео
Идентификатор : 0
Формат : MPEG-4 Visual
Профиль формата : Advanced Simple@L5
Параметр BVOP формата : 1
Параметр QPel формата : Нет
Параметр GMC формата : Без точки перехода
Параметр матрицы формата : Выборочная
Идентификатор кодека : DX50
Идентификатор кодека/Подсказка : DivX 5
Продолжительность : 41 м.
Битрейт : 1434 Кбит/сек
Ширина : 720 пикселей
Высота : 400 пикселей
Соотношение сторон : 16:9
Частота кадров : 23,976 кадра/сек
Цветовое пространство : YUV
Субдискретизация насыщенности : 4:2:0
Битовая глубина : 8 бит
Тип развёртки : Прогрессивная
Метод сжатия : С потерями
Бит/(Пиксели*Кадры) : 0.208
Размер потока : 430 Мбайт (78%)
Библиотека кодирования : XviD 65
Аудио #1
Идентификатор : 1
Формат : AC-3
Формат/Информация : Audio Coding 3
Расширение режима : CM (complete main)
Параметр Endianness формата : Big
Идентификатор кодека : 2000
Продолжительность : 41 м.
Вид битрейта : Постоянный
Битрейт : 192 Кбит/сек
Каналы : 2 канала
Расположение каналов : Front: L R
Частота : 48,0 КГц
Метод сжатия : С потерями
Размер потока : 57,6 Мбайт (10%)
Выравнивание : Разделение по промежуткам
Продолжительность промежутка : 42 мс. (1,00 видеокадр)
Время предзагрузки промежутка : 500 мс.
Заголовок : Профессиональный (многоголосый закадровый) СТС
Аудио #2
Идентификатор : 2
Формат : AC-3
Формат/Информация : Audio Coding 3
Расширение режима : CM (complete main)
Параметр Endianness формата : Big
Идентификатор кодека : 2000
Продолжительность : 41 м.
Вид битрейта : Постоянный
Битрейт : 192 Кбит/сек
Каналы : 2 канала
Расположение каналов : Front: L R
Частота : 48,0 КГц
Метод сжатия : С потерями
Размер потока : 57,6 Мбайт (10%)
Выравнивание : Разделение по промежуткам
Продолжительность промежутка : 42 мс. (1,00 видеокадр)
Время предзагрузки промежутка : 500 мс.
Заголовок : Английский



Скачать Закон.и.порядок.Специальный.Корпус.Law.and.order.Special.Victims.Unit.(Сезон.12).(Arthur.W.Forney).[2010.детектив.драма.триллер.WEB-DLRip].[MVO.(СТС)]+[Original].torrent без регистрации
Золото ЗОЛОТАЯ РАЗДАЧА! СКАЧАННОЕ НЕ ЗАСЧИТЫВАЕТСЯ! Золото
Дата: Зарегистрирован   [ Тип: внутренний ] Как тут cкачать?
MAGNET ссылка
MAGNET ссылка


Скачать .torrent

66 KB

Статус: проверено DHT
Скачан: торрент - 3 раз, раздача полностью - 0 раз
Размер: 12,87 GB
Оценка:  - (Голосов: 0)
Поблагодарили: 0
Поделиться ссылкой на эту раздачу с друзьями:
В контактеFacebookОдноклассникиTwitterLivejournalМой МирLiveinternet
 

 
Показать сообщения:    


Вы не можете начинать темы
Вы не можете отвечать на сообщения
Вы не можете редактировать свои сообщения
Вы не можете удалять свои сообщения
Вы не можете голосовать в опросах
Вы не можете прикреплять файлы к сообщениям
Вы можете скачивать файлы