Loading...
Error

Скачать Закон и порядок: Специальный корпус / Law & Order: Special Victims Unit (Сезон 13) (Дик Вульф) [2011, детектив, драма, HDTVRip] [VO (DexterTV)] торрент без регистрации

 
Статистика раздачи
Размер:  11,17 GB   |    Скачан:  2 раза
Сидов:  1  [  0 KB/s  ]  
 
Автор Сообщение

МихаНЕзатор

[] 

Закон и порядок: Специальный корпус / Law & Order: Special Victims Unit


Год выпуска: 2011
Страна: США
Жанр: Детектив, драма
Продолжительность: 00:43:00
Перевод: Любительский (одноголосый закадровый) DexterTV
Режиссёр: Дик Вульф

В ролях: Маришка Харджитай (Mariska Hargitay) в роли детектива Оливии Бенсон, Ричард Белцер (Richard Belzer) в роли сержанта Джона Манча, Айс-Ти (Ice-T) в роли детектива Одафина 'Фина' Тутуолы, Дэнни Пино (Danny Pino) в роли детектива Ника Амаро, Келли Гиддиш (Kelli Giddish) в роли детектива Аманды Роллинз, Тамара Туни (Tamara Tunie) в роли судебно-медицинского эксперта Мелинды Уорнер, Дэнн Флорек (Dann Florek) в роли капитана Дональда Крейгена, Рауль Эспарза (Raul Esparza) в роли помощника окружного прокурора Рафаэля Барбы.

Описание: Сериал рассказывает о так называемом «Специальном корпусе» полиции, который занимается расследованиями преступлений на сексуальной почве и посягательств против детей. Действие сериала разворачивается в Нью-Йорке. Главными персонажами сериала являются работники специального корпуса. Из-за особой жестокости преступлений работники отдела постоянно находятся на грани нервного срыва, что сказывается на их личной жизни, а также на взаимоотношениях друг с другом.



Качество: HDTVRip
Формат: AVI
Видео: XviD, 624x352, 23.976 fps, 1418 Kbps, 0.269 bit/pixel
Аудио: MP3, 48 kHz, 2 ch, 192 Kbps
Субтитры: отсутствуют

АНОНСЫ ПОПУЛЯРНЫХ РАЗДАЧ
Format : AVI
Format/Info : Audio Video Interleave
File size : 501 MiB
Duration : 43mn 12s
Overall bit rate : 1 620 Kbps
Writing application : VirtualDubMod 1.5.10.3 | www.virtualdub-fr.org || (build 2550/release)
Writing library : VirtualDub build 35576/release
Video
ID : 0
Format : MPEG-4 Visual
Format profile : Advanced Simple@L5
Format settings, BVOP : 1
Format settings, QPel : No
Format settings, GMC : No warppoints
Format settings, Matrix : Default (MPEG)
Codec ID : XVID
Codec ID/Hint : XviD
Duration : 43mn 12s
Bit rate : 1 418 Kbps
Width : 624 pixels
Height : 352 pixels
Display aspect ratio : 16:9
Frame rate : 23.976 fps
Color space : YUV
Chroma subsampling : 4:2:0
Bit depth : 8 bits
Scan type : Progressive
Compression mode : Lossy
Bits/(Pixel*Frame) : 0.269
Stream size : 438 MiB (88%)
Writing library : XviD 1.2.1 (UTC 2008-12-04)
Audio
ID : 1
Format : MPEG Audio
Format version : Version 1
Format profile : Layer 3
Mode : Joint stereo
Codec ID : 55
Codec ID/Hint : MP3
Duration : 43mn 12s
Bit rate mode : Constant
Bit rate : 192 Kbps
Channel(s) : 2 channels
Sampling rate : 48.0 KHz
Compression mode : Lossy
Stream size : 59.3 MiB (12%)
Alignment : Split accross interleaves
Interleave, duration : 42 ms (1.00 video frame)
Interleave, preload duratio : 500 ms



Скачать Закон.и.порядок.Специальный.корпус.Law.&.Order.Special.Victims.Unit.(Сезон.13).(Дик.Вульф).[2011.детектив.драма.HDTVRip].[VO.(DexterTV)].torrent без регистрации
Золото ЗОЛОТАЯ РАЗДАЧА! СКАЧАННОЕ НЕ ЗАСЧИТЫВАЕТСЯ! Золото
Дата: Зарегистрирован   [ Тип: внутренний ] Как тут cкачать?
MAGNET ссылка
MAGNET ссылка


Скачать .torrent

31 KB

Статус: проверено DHT
Скачан: торрент - 2 раз, раздача полностью - 0 раз
Размер: 11,17 GB
Оценка:  - (Голосов: 0)
Поблагодарили: 0
Поделиться ссылкой на эту раздачу с друзьями:
В контактеFacebookОдноклассникиTwitterLivejournalМой МирLiveinternet
 

 
Показать сообщения:    


Вы не можете начинать темы
Вы не можете отвечать на сообщения
Вы не можете редактировать свои сообщения
Вы не можете удалять свои сообщения
Вы не можете голосовать в опросах
Вы не можете прикреплять файлы к сообщениям
Вы можете скачивать файлы